<?xml version="1.0" standalone="no"?>
<!DOCTYPE svg PUBLIC "-//W3C//DTD SVG 1.1//EN" "http://www.w3.org/Graphics/SVG/1.1/DTD/svg11.dtd" >
<svg>
<metadata>
Created by FontForge 20090622 at Mon Oct 10 10:48:34 2016
 By ffonts
AliScott
</metadata>
<defs>
<font id="HelloAli" horiz-adv-x="681" >
  <font-face 
    font-family="HelloAli"
    font-weight="500"
    font-stretch="normal"
    units-per-em="1000"
    panose-1="2 0 6 3 0 0 0 0 0 0"
    ascent="800"
    descent="-200"
    x-height="524.5"
    cap-height="740.5"
    bbox="-150.12 -289.63 986.667 930"
    underline-thickness="50"
    underline-position="-100"
    unicode-range="U+0020-U+3000"
  />
<missing-glyph horiz-adv-x="364" 
d="M66 33h199v600h-199v-600zM33 0v666h265v-666h-265z" />
    <glyph glyph-name=".notdef" horiz-adv-x="364" 
d="M66 33h199v600h-199v-600zM33 0v666h265v-666h-265z" />
    <glyph glyph-name=".null" horiz-adv-x="0" 
 />
    <glyph glyph-name="nonmarkingreturn" horiz-adv-x="333" 
 />
    <glyph glyph-name="space" unicode=" " horiz-adv-x="300" 
 />
    <glyph glyph-name="exclam" unicode="!" horiz-adv-x="295" 
d="M104 693q0 17 12 29t29 12t29 -12t12 -29q0 -324 9 -500q1 -17 -10.5 -29.5t-28.5 -13.5t-29.5 10.5t-13.5 28.5q-9 178 -9 504zM183 54q0 -17 -12 -29t-29 -12t-29 12t-12 29t12 29t29 12t29 -12t12 -29z" />
    <glyph glyph-name="quotedbl" unicode="&#x22;" horiz-adv-x="359" 
d="M19 695q1 17 13.5 28.5t29.5 10.5t28.5 -13.5t10.5 -29.5q-2 -38 1 -96q4 -88 4 -100q1 -17 -11 -29.5t-29 -13t-29.5 11.5t-12.5 29q0 11 -5 98q-3 62 0 104zM178 708q3 17 17.5 26t31.5 5.5t26 -18t5.5 -31.5t-7 -30t-4.5 -18t-2 -9t-1 -7v-10t0.5 -20t0.5 -40
q1 -18 -11 -30t-29.5 -12.5t-29.5 11.5t-12.5 29t-1 37.5t-0.5 25t1 17.5q0 4 16 74z" />
    <glyph glyph-name="numbersign" unicode="#" horiz-adv-x="712" 
d="M307 496q-34 -9 -65 -19q-3 -45 -6 -77v-3q31 11 68 22q0 16 1 32zM80 245q-15 -8 -31 -2.5t-24 21t-2.5 31.5t21.5 24q49 24 106 47q2 24 4 42q2 19 3 44q-64 -20 -122 -41q-16 -6 -31.5 1.5t-21.5 23.5t1.5 31.5t23.5 21.5q73 26 155 51q7 114 23 185q3 16 17.5 25.5
t31 6t26 -18t5.5 -31.5q-12 -59 -18 -142l69 19q5 46 18 135q3 17 16.5 27t30.5 7.5t27 -16t8 -30.5q-10 -67 -14 -101l147 36q17 4 31.5 -5t18.5 -25.5t-5 -31t-25 -18.5q-109 -26 -177 -44q-3 -37 -5 -71v-3q156 45 172 49q16 5 31 -3t20 -24t-3 -31t-24 -20l-112.5 -33
t-85.5 -25q0 -75 -1 -105.5t-5.5 -91t-12.5 -107.5q-3 -17 -17.5 -27t-31 -7t-26.5 17.5t-7 30.5q17 90 18 265l-75 -25q-13 -126 -11 -196q1 -17 -11 -29.5t-29 -13t-29.5 11.5t-12.5 29q-2 67 7 164q-32 -14 -61 -28z" />
    <glyph glyph-name="dollar" unicode="$" horiz-adv-x="633" 
d="M202 491q-1 55 -1 103q-36 -5 -55 -21q-14 -12 -11 -30q4 -19 23 -36l1 -1q1 0 4 -1t7 -3q13 -5 32 -11zM288 374l4 -109.5t4 -126.5q44 3 86 23q25 12 45 26q5 4 9.5 8t7 6t4.5 4l1 2q11 56 -60 110q-40 31 -101 57zM205 752q1 17 13.5 28.5t29.5 10.5t28.5 -13.5
t10.5 -29.5l-2 -75q93 -18 135 -81q9 -15 16 -37q0 -1 2.5 -10.5t4.5 -14.5q6 -16 -1.5 -31.5t-23.5 -21.5t-31.5 1.5t-21.5 23.5q0 1 -9 30q-3 10 -6 14q-18 29 -66 42q0 -57 2 -124q93 -35 153 -81q112 -85 92 -192q-8 -37 -57 -72q-25 -17 -56 -32q-57 -27 -120 -31v-14
q1 -17 -11 -29.5t-29 -13t-29.5 11.5t-12.5 29q0 11 -1 23q-95 23 -142 110q-6 11 -11 26t-9 30.5t-5 17.5q-6 16 2 31.5t24 21t31.5 -2.5t20.5 -24q4 -13 7.5 -25.5l5.5 -20t6 -14.5q24 -43 68 -62q-1 41 -4 125.5t-4 127.5l-24 7q-25 8 -41 14q-25 10 -35 19
q-41 36 -50 83q-14 67 39 110q41 33 107 40h1q1 38 3 75z" />
    <glyph glyph-name="percent" unicode="%" horiz-adv-x="860" 
d="M272 534q-10 2 -19 9q-2 1 -25 25l-6 5q-18 5 -42 -3t-42 -24q-15 -15 -17 -30q-2 -14 11 -29q18 -21 42 -30t44.5 -6t36.5 14q22 16 23 41q0 13 -6 28zM256 648q26 11 45 -10q62 -67 60 -135q-3 -66 -58 -105q-33 -23 -74 -28.5t-84 10.5t-75 53q-38 43 -31 94
q6 43 42 78q31 30 75.5 44.5t85.5 3.5q7 -2 14 -5zM669 246q-3 0 -6 2q-9 3 -20 9l-5 3l-10 5q-9 5 -13 5q-19 0 -43 -14t-39 -36q-13 -19 -12 -35q0 -15 18 -28q11 -11 42 -7.5t60 22.5q27 18 35 38q6 17 -6 34q0 1 -1 2zM656 343q15 1 28 -8l9 -6l12 -8q22 -13 33 -29
q37 -53 15 -111q-17 -45 -66 -78q-28 -19 -61 -29t-71 -7t-66 24q-48 36 -51 89q-3 44 27 87q26 36 67 60.5t83 24.5q20 0 41 -9zM588 662q13 10 30 7.5t27 -16t7.5 -30.5t-16.5 -27q-16 -12 -31.5 -27l-26.5 -26t-27 -31.5t-23.5 -31l-26 -36.5t-26.5 -36l-50 -69
l-54 -74.5t-43 -64t-45 -77t-33 -73.5q-6 -16 -21.5 -23t-31.5 -0.5t-23 22t0 31.5q16 41 36 80.5t48.5 83.5l45.5 68.5l55.5 76.5l49.5 67q6 9 24.5 35l27 37.5l26 34t31 36.5t32 31.5t38.5 31.5z" />
    <glyph glyph-name="ampersand" unicode="&#x26;" horiz-adv-x="653" 
d="M216 340q-7 -3 -13 -7q-34 -20 -53.5 -45.5t-26.5 -67.5q-8 -44 -6 -60q4 -30 11.5 -37.5t42.5 -16.5q75 -21 149 36q17 13 34 30l-64.5 80.5l-50.5 62.5q-9 11 -23 25zM233 442q4 1 6 3q47 23 73 43q45 34 61 56q16 23 5 37q-14 17 -49.5 23t-77.5 -6q-38 -12 -54 -35
t-5 -57q9 -29 41 -64zM543 80q11 -13 10 -30t-13.5 -28.5t-29.5 -10.5t-29 13l-74 85q-18 -18 -37 -33q-106 -81 -221 -50q-55 15 -78 38q-28 27 -36 86q-4 28 6 84q12 62 41.5 101t75.5 67q-32 40 -44 78q-24 73 15 130q33 46 97 67q36 11 75.5 11.5t78.5 -13.5t62 -42
q19 -24 22.5 -51t-4 -47.5t-21.5 -39.5q-23 -32 -77 -73q-29 -22 -69 -43q6 -6 10 -12l49 -61l56 -69q15 21 30 45q9 14 25.5 18t31 -5t18.5 -25.5t-5 -31.5q-23 -37 -46 -66q43 -51 81 -92z" />
    <glyph glyph-name="quotesingle" unicode="'" horiz-adv-x="237" 
d="M55 685q2 17 15.5 27.5t30.5 8.5t27.5 -15.5t8.5 -30.5q-10 -79 -18 -242q-1 -17 -13.5 -28.5t-29.5 -10.5t-28.5 13.5t-10.5 29.5q7 167 18 248z" />
    <glyph glyph-name="parenleft" unicode="(" horiz-adv-x="430" 
d="M251 718q15 9 31.5 5t25.5 -18.5t5 -31t-18 -25.5q-11 -7 -22 -13l-18 -10t-13 -9q-36 -32 -68 -97t-48 -143q-18 -78 -14 -148t29 -110q22 -36 59 -52.5t92 -20.5q17 -1 28 -14t10 -30t-14 -28t-30 -10q-153 10 -215 111q-25 40 -35 95.5t-7 111t16 113.5
q19 87 56.5 164t86.5 120q9 8 21.5 16t26 15.5t15.5 8.5z" />
    <glyph glyph-name="parenright" unicode=")" horiz-adv-x="386" 
d="M13 621q-12 13 -11.5 30t13 29t29.5 11.5t29 -12.5q8 -9 39 -40l47 -48t39 -47t37 -57q46 -90 51.5 -186.5t-31.5 -187t-114 -156.5q-13 -11 -30 -10t-28 14t-10 30t14 28q93 80 113 199.5t-39 230.5q-11 23 -29.5 47t-33 39l-43.5 44z" />
    <glyph glyph-name="asterisk" unicode="*" horiz-adv-x="583" 
d="M19 431q-17 -1 -30 10.5t-13.5 28.5t11 30t28.5 13q29 1 84 1l-74 74q-13 12 -13.5 29t11.5 29.5t29 13t29 -11.5q31 -29 74 -73l-15 122q-2 17 8.5 30.5t27.5 15.5t30.5 -8.5t15.5 -27.5q7 -50 14 -112q42 48 83 83q13 11 30 10t28 -14t10 -30t-14 -28q-43 -37 -87 -90
q12 2 26 4q102 18 125 21q17 2 30.5 -8.5t15.5 -27.5t-8.5 -30.5t-27.5 -15.5q-21 -3 -121 -20q-21 -4 -37 -6q48 -46 92 -80q14 -11 16 -28t-8.5 -30.5t-27.5 -15.5t-30 8q-33 26 -66 55l11 -89q2 -17 -8.5 -30.5t-27.5 -15.5t-30.5 8.5t-15.5 27.5l-16 129l-72 -102
q-10 -13 -27 -15.5t-30.5 7.5t-16 27t7.5 31l72 101h-6q-61 1 -87 0z" />
    <glyph glyph-name="plus" unicode="+" horiz-adv-x="683" 
d="M20 200q-17 -2 -30.5 8.5t-15.5 27.5t8.5 30.5t27.5 15.5q55 7 140 9q3 0 48 1q3 125 27 218q4 16 19 24.5t31.5 4.5t25 -19t4.5 -32q-22 -82 -25 -193h5q37 2 125 12q83 10 130 11q18 1 30.5 -10.5t13 -29t-11 -30t-28.5 -12.5q-45 -2 -125 -11q-90 -10 -130 -12
q-4 0 -9 -1q1 -33 3.5 -95t2.5 -75q1 -17 -11 -29.5t-29 -13t-29.5 11.5t-12.5 29q-1 11 -3.5 73t-2.5 96q-41 -1 -46 -1q-81 -2 -132 -8z" />
    <glyph glyph-name="comma" unicode="," horiz-adv-x="277" 
d="M60 57q-11 12 -10 28.5t13.5 27.5t29 10t27.5 -14q91 -102 37 -225q-7 -15 -22.5 -21t-30.5 0.5t-21 22t0 30.5q18 41 13 73.5t-36 67.5z" />
    <glyph glyph-name="hyphen" unicode="-" horiz-adv-x="386" 
d="M42 242q-17 0 -29 12.5t-11.5 29.5t13 29t29.5 11q112 -2 197 7q17 2 30 -9t15 -28t-9 -30t-28 -15q-90 -9 -207 -7z" />
    <glyph glyph-name="period" unicode="." horiz-adv-x="250" 
d="M150 69q0 -17 -12 -29t-29 -12t-29 12t-12 29t12 29t29 12t29 -12t12 -29z" />
    <glyph glyph-name="slash" unicode="/" horiz-adv-x="378" 
d="M199 767q6 16 22 23t31.5 0.5t22.5 -22.5t0 -31q-16 -41 -29 -85.5t-28.5 -104t-24.5 -90.5q-11 -38 -38 -124.5t-43.5 -148.5t-27.5 -122q-3 -17 -17 -27t-31 -7t-27 17t-7 31q12 63 29.5 128t45 154t36.5 121q8 27 24 88.5t30.5 109.5t31.5 90z" />
    <glyph glyph-name="zero" unicode="0" horiz-adv-x="548" 
d="M338 570l-2 2q-94 77 -155 37q-29 -18 -51.5 -59.5t-34.5 -100.5q-25 -124 6 -239q31 -117 102 -147q45 -19 81 14q35 31 58 97q13 37 19.5 103.5t2.5 138.5q-5 92 -26 154zM245 704q1 4 3 8q9 15 25.5 19t31.5 -4q4 -3 8 -5t8.5 -4t7.5 -4q23 -11 36 -24q71 -74 82 -270
q4 -77 -3.5 -152t-23.5 -122q-30 -85 -81 -131q-75 -67 -168 -28q-108 46 -150 201q-36 135 -7 277q32 156 122 214q50 32 109 25z" />
    <glyph glyph-name="one" unicode="1" horiz-adv-x="426" 
d="M246 688q5 16 20.5 24t31.5 2.5t24 -21t2 -31.5q-27 -81 -27 -317q1 -225 22 -333q4 -17 -5.5 -31t-26.5 -17.5t-31 6t-17 26.5q-24 115 -24 349q-1 249 31 343z" />
    <glyph glyph-name="two" unicode="2" horiz-adv-x="641" 
d="M96 435q-5 -16 -19.5 -24.5t-31 -4t-25 19t-4.5 31.5q16 59 19 66q12 28 51 64q29 28 75 50t92 29q58 8 100 -12q53 -26 71 -88q16 -55 -16 -129q-23 -54 -73 -121q-35 -48 -90 -109l-36 -40l-35 -39q-7 -9 -24 -29q40 3 111 7q220 15 239 15q17 0 29 -12t12 -29t-12 -29
t-29 -12q-16 0 -233 -15l-141 -9q-31 -2 -48 -2h-15q-5 0 -8 1q-4 0 -7 1q-13 4 -22 15q-10 13 -8 29q0 6 2 11q2 4 4 7q1 3 4 6q2 3 7 9q7 9 22 26l28 32.5l27 31.5q9 11 35 39.5t36 40.5q53 59 86 103q44 60 63 105q20 46 12 74q-7 26 -26 35q-20 10 -53 5t-67.5 -21.5
t-55.5 -35.5q-26 -24 -31 -37q-1 -1 -15 -55z" />
    <glyph glyph-name="three" unicode="3" horiz-adv-x="603" 
d="M81 465q-8 -15 -24.5 -19.5t-31.5 3.5t-19.5 24.5t3.5 31.5q27 51 31 56q17 24 57 52q31 21 80.5 38t95.5 18q62 3 100 -24q49 -35 47 -105q-1 -59 -54 -117q-2 -2 -4 -5q46 -16 79 -49.5t48.5 -75t14.5 -88.5t-20 -91q-25 -60 -81.5 -99.5t-120.5 -50t-130.5 10.5
t-108.5 73q-13 16 -21.5 31t-12.5 31.5t-5.5 25.5t-2 29.5t-0.5 25.5q-1 17 10 30t28 14t30 -10t14 -28q1 -11 1.5 -28.5t1 -22.5t3 -14.5t6.5 -15.5t12 -16q37 -45 100 -54t120.5 19t80.5 81q29 67 1 127t-94 72l-41 3q-2 -2 -6 -5q-12 -10 -18 -14q-16 -12 -29 -15
q-22 -5 -39 10q-16 14 -16 36q0 41 42 59q16 7 38 9q36 25 59 50q32 36 33 64q0 26 -13 35q-15 11 -49 10t-72.5 -14t-58.5 -28q-29 -20 -38 -32q-1 -1 -26 -48z" />
    <glyph glyph-name="four" unicode="4" horiz-adv-x="528" 
d="M279 685q1 17 14 28t30 10t28 -14t10 -30q-7 -113 -10 -289q26 1 36 1q17 0 29 -12t12 -29t-12 -29t-29 -12q-10 0 -38 -2q-3 -171 -7 -259q0 -17 -13 -28.5t-30 -11t-28.5 13.5t-10.5 30q3 87 6 250q-21 -1 -40 -2q-61 -3 -97 -1q-24 1 -39 3q-27 5 -40 19
q-13 13 -18 41q-3 16 -4 41q-2 40 -1 106q1 76 7 173q1 17 13.5 28.5t29.5 10.5t28.5 -13.5t10.5 -29.5q-5 -96 -7 -171q-1 -62 1 -100q1 -14 2 -24q9 -1 20 -2q33 -1 91 1q20 1 45 3q4 184 11 300z" />
    <glyph glyph-name="five" unicode="5" horiz-adv-x="563" 
d="M384 699q16 2 30 -8t16.5 -26.5t-7.5 -30.5t-27 -17q-14 -2 -63 -6q-61 -4 -88 -7q-50 -5 -78 -10q-12 -3 -19 -5q-2 -6 -3 -12q-3 -19 -6 -49q-3 -20 -5.5 -51.5t-3.5 -38.5q-2 -13 -5 -40l9 6q18 11 21 12q85 42 167 28q47 -8 82.5 -38t50.5 -82q14 -53 5 -115.5
t-38 -116.5q-32 -60 -84.5 -96t-120.5 -29q-27 3 -53.5 13.5t-42.5 20t-41 31.5t-31.5 29t-30.5 31q-12 13 -11.5 30t13 29t29.5 11.5t29 -12.5q32 -34 49.5 -50.5t44.5 -32t53 -18.5q76 -8 124 82q22 41 29 89t-3 82q-14 51 -67 60q-56 10 -117 -20q-2 -2 -13 -8
q-22 -14 -34 -21l-34 -21q-9 -4 -15 -7q-4 -2 -8 -3q-5 -2 -10 -2q-15 -2 -28 7q-7 5 -11 11.5t-5 9.5v4q-1 3 -1 7v1v2v3v2v3q1 4 2 11l4 33q8 57 10 74q1 7 3.5 38t5.5 51q3 33 7 54q6 33 16 48q10 16 35 26q14 5 35 9q33 7 88 12q27 3 88 8q46 3 58 5z" />
    <glyph glyph-name="six" unicode="6" horiz-adv-x="601" 
d="M130 144q22 -34 51 -52q44 -25 84.5 -22.5t73.5 25t55 59.5q33 57 23 111q-12 56 -72 83q-69 31 -127 -8q-45 -30 -72 -87q-6 -13 -9.5 -21.5t-5 -17t-1.5 -17v-21v-31.5v-1zM479 569q8 -14 3.5 -30.5t-19 -25t-31 -4t-25.5 19.5q-28 49 -52 67q-25 20 -76 26
q-70 8 -121 -50.5t-68 -162.5q-8 -48 -6 -97q35 61 88 96q96 65 207 16q99 -45 119 -143q17 -85 -33 -169q-30 -52 -79.5 -86t-114 -40t-132.5 36q-44 26 -75 72.5t-44.5 100.5t-17.5 114t6 114q10 57 31.5 108t55 93.5t84 64.5t110.5 15q73 -9 117 -42q36 -28 73 -93z" />
    <glyph glyph-name="seven" unicode="7" horiz-adv-x="603" 
d="M58 603q-17 1 -28.5 13.5t-10.5 29.5t13.5 28.5t29.5 10.5q34 -2 104 -6.5t124.5 -7.5t104.5 -3q3 0 5 0.5l8 2t14 2.5q38 6 62 -15q19 -17 20 -44q0 -16 -6 -35q-9 -25 -30 -61q-14 -24 -35 -54l-9 -13l-7.5 -10.5t-3.5 -5.5q-4 -6 -34 -55l-37.5 -61.5l-31.5 -54
t-32.5 -62l-23.5 -54.5t-23 -63.5t-12 -58.5q-3 -17 -16.5 -27t-30.5 -7.5t-27 16t-8 30.5q5 34 14.5 68t25 71l26.5 62t35 66l33.5 57.5t37.5 62t34 54.5l22 31l32 50q9 15 15 27q-10 -1 -17 -1q-50 0 -105.5 2.5t-127 7.5t-104.5 7z" />
    <glyph glyph-name="eight" unicode="8" horiz-adv-x="606" 
d="M288 476q22 17 38 31q31 29 39 56q-16 17 -21 21q-10 8 -50 21q-22 7 -61.5 6.5t-74.5 -11.5q-72 -22 -75 -69q0 -6 1.5 -9.5t10 -9t25.5 -9.5q19 -5 53 -8q45 -4 52 -5q34 -6 63 -14zM366 666q4 3 8 5q16 6 32 -1t22 -23q1 -3 4 -9q7 -13 7 -14q8 -16 10 -30
q10 -12 9 -28t-12 -28q-2 -1 -3 -2q-15 -46 -61 -89l-3 -3q36 -19 63 -42q98 -90 48 -240q-28 -83 -101.5 -137.5t-154.5 -61.5q-92 -8 -150 46q-64 59 -58 173q2 39 16.5 73.5t41 63t50.5 48.5t58 44q-3 0 -12 0.5t-15 1.5q-40 4 -65 10q-19 5 -34.5 12t-32 20t-25.5 33.5
t-7 46.5q3 56 41 91.5t92 52.5q46 14 97 15t87 -11q32 -10 48 -17zM303 386q-3 -3 -41 -28q-77 -52 -114 -91.5t-40 -88.5q-3 -75 33 -109q31 -29 85 -24q59 5 112.5 45t73.5 98q33 99 -26 152q-29 27 -83 46z" />
    <glyph glyph-name="nine" unicode="9" horiz-adv-x="562" 
d="M360 475q0 22 2 40q2 33 5 55q-42 32 -81.5 46t-70 11t-53.5 -14.5t-39 -30.5q-24 -28 -30.5 -65t10 -77.5t56.5 -70.5q48 -35 101 -13t85 86q10 20 15 33zM403 645q6 3 12 4q13 1 23.5 -4.5t14.5 -11t6 -10.5q3 -6 3.5 -14t-1.5 -22q-1 -6 -2.5 -18.5t-2.5 -17.5
q-6 -64 -14 -90q-2 -43 -1 -102q0 -63 2 -159.5t2 -114.5q0 -17 -12 -29t-29 -12t-29 12t-12 29q0 19 -2 102.5t-3 136.5q-34 -31 -72.5 -47.5t-85.5 -11.5t-91 38q-59 44 -83.5 106t-14.5 121.5t49 105.5q38 44 90.5 62.5t119 6t133.5 -59.5z" />
    <glyph glyph-name="colon" unicode=":" horiz-adv-x="286" 
d="M186 465q0 -17 -12 -29t-29 -12t-29 12t-12 29t12 29t29 12t29 -12t12 -29zM183 54q0 -17 -12 -29t-29 -12t-29 12t-12 29t12 29t29 12t29 -12t12 -29z" />
    <glyph glyph-name="semicolon" unicode=";" horiz-adv-x="292" 
d="M192 465q0 -17 -12 -29t-29 -12t-29 12t-12 29t12 29t29 12t29 -12t12 -29zM86 188q-4 17 5 31.5t26 18t31.5 -5.5t17.5 -26q18 -83 16 -114q-4 -42 -43 -111q-9 -14 -25.5 -18.5t-31 4t-19 25t3.5 31.5q30 52 32 76q2 19 -13 89z" />
    <glyph glyph-name="less" unicode="&#x3c;" horiz-adv-x="655" 
d="M501 510q16 6 31 -1.5t21 -24t-1.5 -31.5t-24.5 -21q-158 -55 -329 -149l-33 -19q8 -5 21.5 -12.5t17.5 -10.5q136 -76 320 -151q16 -6 23 -22t0.5 -31.5t-22.5 -22.5t-31 0q-190 76 -330 155l-24 14.5t-23 13.5t-19 8l-18 -2q-52 -3 -68 36q-6 17 -1 33q6 16 19 25
q11 8 29 11q3 1 9.5 2t8.5 1l4 1q16 8 42.5 23.5t34.5 19.5q177 98 343 155z" />
    <glyph glyph-name="equal" unicode="=" horiz-adv-x="612" 
d="M83 320q-17 -1 -29.5 11t-13 29t11.5 29.5t29 12.5q142 4 386 4q17 0 29 -12t12 -29t-12 -29t-29 -12q-242 0 -384 -4zM78 113q-17 0 -29 11.5t-12 29t11.5 29.5t29.5 12q77 1 219.5 7t172.5 7q17 1 29.5 -11t13 -29t-11.5 -29.5t-29 -12.5q-29 -1 -172.5 -7t-221.5 -7z
" />
    <glyph glyph-name="greater" unicode="&#x3e;" horiz-adv-x="591" 
d="M54 407q-15 9 -19 25.5t4.5 31.5t25 19t31.5 -4q50 -30 125 -64l63.5 -29l67.5 -31q14 -6 36 -18q23 -13 31 -17q1 0 2 -0.5t2.5 -0.5t6 -0.5t11.5 -2.5q17 -4 28 -11q26 -18 22 -49q-2 -16 -15 -31q-6 -8 -17 -16q-15 -12 -39 -26l-64 -34q-117 -63 -289 -188
q-13 -10 -30 -7.5t-27 16t-7.5 30.5t16.5 27q176 129 299 194q51 28 55 30q-8 4 -25 14l-30 16l-68 30.5l-64 28.5q-78 36 -132 67z" />
    <glyph glyph-name="question" unicode="?" horiz-adv-x="594" 
d="M130 502q-6 -16 -22 -22.5t-32 0t-22.5 22.5t0.5 32q23 56 26 61q15 27 52 59q35 29 89.5 42.5t107.5 8.5q37 -4 69.5 -16t59.5 -41t34 -71q15 -96 -53 -166q-13 -13 -54 -46q-30 -25 -44 -42q-16 -20 -20 -31l-2 -10l-3 -15t-5 -22q-3 -16 -17.5 -25.5t-31 -6t-26 18
t-5.5 31.5q11 53 12 55q8 26 34 57q19 23 56 53q37 31 47 41q20 20 27.5 41.5t2.5 54.5q-8 50 -89 58q-39 3 -77.5 -6.5t-57.5 -26.5q-26 -21 -34 -36q-1 -1 -22 -52zM316 68q0 -17 -12 -29t-29 -12t-29 12t-12 29t12 29t29 12t29 -12t12 -29z" />
    <glyph glyph-name="at" unicode="@" horiz-adv-x="948" 
d="M554 423q1 8 4 20q-37 42 -74 40q-41 -2 -77 -50q-37 -50 -38 -106q-1 -51 32 -70q28 -16 50 -10q20 5 39 29q36 45 59 131q2 8 5 16zM677 141q14 -6 20 -21q7 -15 0.5 -31t-22.5 -23q-79 -34 -169 -52.5t-167 -6.5q-97 14 -150 75q-60 70 -54 191q7 157 88 262
q32 41 74.5 76t95 60.5t108.5 31.5t114 -9q64 -20 117 -68.5t84 -112.5q20 -43 28 -88t0.5 -93.5t-33.5 -90.5q-17 -27 -47.5 -53t-65.5 -40q-10 -4 -21 -7zM579 535q1 3 2 5q2 5 5 9q13 13 31 14q23 0 35 -19q4 -6 6 -13l1 -13l-3 -20q-3 -15 -8 -37q8 -14 4.5 -29.5
t-17.5 -24.5l-1 -1q-8 -34 -12 -53q-12 -51 -14 -81q-2 -29 2 -35q18 -28 58 -12q22 9 42.5 26t30.5 34q25 43 24.5 92.5t-24.5 99.5t-64 87t-86 50q-75 23 -160.5 -16.5t-141.5 -112.5q-65 -84 -72 -216q-4 -88 34 -133q33 -38 99 -48q61 -8 136 6t145 43q-57 4 -91 56
q-3 4 -5 10q-29 -27 -62 -36q-54 -15 -112 18q-40 22 -58 60.5t-17 83.5q2 82 55 153q59 80 139 84q52 2 99 -31z" />
    <glyph glyph-name="A" unicode="A" 
d="M202 288q91 13 216 14q-24 124 -45 187q-18 52 -32 85q-2 3 -3 7l-29 -54q-24 -43 -34 -65q-24 -52 -73 -174zM71 3q-9 -15 -25.5 -19t-31.5 4.5t-19 25t4 31.5q38 64 74 146q-13 9 -17 24q-4 16 4.5 31t25.5 19q10 3 20 5q73 181 93 226q12 25 38 72l35 65v1q0 5 2 18
q3 17 10 28q15 24 44 24q22 0 40 -17q10 -9 20 -24q14 -21 29 -56.5t34 -91.5q8 -23 15 -47.5t13.5 -53.5t10 -46.5l10 -52.5t9.5 -47q29 -146 68 -226q8 -15 2.5 -31.5t-21 -24t-32 -2t-23.5 21.5q-41 83 -69 214q-161 -2 -268 -22q-49 -117 -95 -195z" />
    <glyph glyph-name="B" unicode="B" horiz-adv-x="676" 
d="M296 360q-36 -17 -82 -33q-40 -14 -92 -21q-9 -2 -20 -3q5 -44 12 -93q1 -2 2 -3l11 -17t7 -11.5t6 -7.5q36 -33 126 -45q90 -11 136 10q24 11 46 35.5t35 53.5q26 61 -7 98q-14 15 -70 26q-48 10 -110 11zM278 442q81 40 113 86q22 32 -7 62q-16 17 -39.5 28t-43.5 13
q-53 4 -108.5 -16t-99.5 -57q-3 -68 1 -144q15 6 34 11q59 16 143 17h7zM18 662q2 17 15.5 27.5t30.5 8.5q14 -2 24 -11.5t12 -23.5q102 58 207 50q36 -3 73.5 -20.5t63.5 -45.5q20 -22 30.5 -47t8 -56.5t-23.5 -61.5q-18 -26 -45 -50l8 -2q84 -16 116 -53q24 -26 32.5 -60
t5 -64t-16.5 -60q-18 -43 -50.5 -78t-70.5 -53q-69 -32 -182 -18q-71 9 -123 34q2 -16 6 -36q2 -17 -8 -31t-26.5 -16.5t-30.5 7.5t-17 26q-17 106 -26 174t-16.5 163.5t-4.5 176.5q-10 12 -9.5 27.5t11.5 26.5q2 34 6 66z" />
    <glyph glyph-name="C" unicode="C" horiz-adv-x="726" 
d="M610 538q9 -14 5.5 -31t-18 -26t-31.5 -5.5t-26 18l-23.5 39l-22 36.5t-20 26.5t-27.5 24.5q-47 34 -96 39.5t-90.5 -12.5t-79.5 -56q-57 -57 -86.5 -139t-18.5 -156q15 -104 83 -177t152 -89q82 -16 142 29q71 53 91 178q3 17 17 27t31 7t27 -17t7 -31
q-26 -157 -123 -230q-90 -68 -208 -44q-110 21 -196 113t-105 222q-13 94 23 194.5t106 170.5q49 49 107 74t128 18.5t137 -53.5q20 -15 39 -36.5t29.5 -37t26 -42z" />
    <glyph glyph-name="D" unicode="D" horiz-adv-x="758" 
d="M175 149q56 -42 77 -48q100 -30 191.5 18t120.5 147q15 56 10 110t-32.5 101t-65.5 81.5t-90 52t-107 11.5q-65 -7 -130 -49q2 -12 3 -20q13 -81 17 -132q6 -73 6 -201v-31v-40zM51 670q-2 17 8.5 30.5t27.5 15.5t30.5 -8.5t15.5 -27.5q1 -9 2 -19q64 35 136 43
q60 7 118.5 -8t104.5 -47t83.5 -77t56.5 -98.5t24 -112.5t-14 -119q-20 -65 -63.5 -116.5t-99.5 -79.5t-122 -36.5t-131 11.5q-22 7 -51 25q1 -11 1 -22q1 -17 -10.5 -29.5t-28.5 -13.5t-29.5 10.5t-13.5 28.5q-3 59 -4 200q0 125 -5 195q-4 47 -16 125q-1 7 -3 18
q-4 3 -6 7q-14 20 -2 43q-6 35 -9 62z" />
    <glyph glyph-name="E" unicode="E" horiz-adv-x="655" 
d="M502 709q17 0 29 -12.5t11.5 -29.5t-13 -29t-29.5 -11q-26 0 -204 -4q-73 -1 -124 -2q-26 -1 -41 -2h-5l-4 -5q-1 -5 2 -19q9 -34 10 -44q2 -17 3 -78q1 -33 1 -74q230 7 322 7q17 0 29 -12t12 -29t-12 -29t-29 -12q-90 0 -323 -7q-2 -101 0 -157q1 -25 5 -46q1 -7 2 -12
h37q49 2 124 6q173 8 204 12q17 2 30.5 -8.5t15.5 -27.5t-8.5 -30.5t-27.5 -15.5q-33 -4 -210 -13q-76 -4 -126 -5q-27 -1 -43 -1h-15q-4 0 -6 1q-8 0 -14 3q-23 10 -35 40q-6 15 -10 38q-4 26 -5 55q-3 48 -1 158t1 157q-2 58 -3 72q0 4 -8 31q-8 32 -3.5 55.5t20.5 41.5
t36 27l13 3h2.5t4.5 1h12q14 1 40 1q52 1 125 3q180 4 208 3z" />
    <glyph glyph-name="F" unicode="F" horiz-adv-x="623" 
d="M46 630q-15 11 -16 30q-2 17 9.5 30t28.5 14q6 3 12 3q8 1 14 -1q10 0 63 3q52 2 83 6q39 5 116 20q80 16 121 22q16 2 30 -8.5t16 -27t-8.5 -30.5t-27.5 -16q-38 -5 -115 -20q-80 -16 -120 -22q-35 -5 -92 -7q-6 0 -16 -0.5t-14 -0.5l5.5 -48t4.5 -38q8 -62 10 -106
q155 47 305 55q17 1 29.5 -10.5t13.5 -28.5t-10.5 -29.5t-28.5 -13.5q-149 -9 -307 -59q-1 -21 -3 -88t-1 -108.5t7 -84.5q2 -17 -8 -31t-27 -16t-31 8t-16 27q-5 35 -6.5 77t-1 70.5t1.5 77.5t2 69q-5 6 -7 13q-7 21 7 39v1q-1 50 -11 128q-11 95 -12 101z" />
    <glyph glyph-name="G" unicode="G" horiz-adv-x="732" 
d="M602 614q13 -11 14 -28t-10 -30t-28 -14t-30 10l-30.5 27l-34 30t-30.5 24.5t-35 24.5q-73 47 -135 39q-92 -12 -145 -125q-24 -51 -33 -109.5t-2 -106.5q13 -90 69 -177q12 -18 31 -40.5t31 -28.5q76 -41 152 18q64 48 123 155q14 25 29 70q7 19 10 33q-7 1 -15 0
q-35 -1 -93 -9q-79 -12 -163 -31q-16 -4 -30.5 5t-18.5 25.5t5 31t26 18.5q87 20 169 32q62 10 102 11q26 1 43 -2q29 -5 44 -21q21 -22 14 -65q-4 -23 -15 -55q-18 -52 -35 -83q-67 -122 -145 -181q-119 -91 -242 -24q-24 13 -50 42.5t-42 54.5q-66 102 -81 209
q-9 61 2 131t40 132q33 68 85.5 115t124.5 57q92 12 190 -52q19 -11 40 -27.5l34 -27.5l36 -31.5t29 -26.5z" />
    <glyph glyph-name="H" unicode="H" horiz-adv-x="725" 
d="M471 702q1 17 13.5 28.5t29.5 10.5t28.5 -13.5t10.5 -29.5q-6 -118 -7 -207h38q17 0 29 -12t12 -29t-12 -29t-29 -12h-38q1 -84 7 -157q2 -26 11 -92q7 -61 9 -97q1 -17 -10 -29.5t-28.5 -13.5t-30 10t-13.5 29q-2 33 -9 91q-9 68 -11 96q-6 75 -8 160q-181 -7 -315 -42
q9 -209 31 -320q4 -17 -5.5 -31t-26.5 -17.5t-31 6t-17 26.5q-24 117 -33 323q-16 7 -21 24q-5 14 0.5 27.5t17.5 21.5q-1 13 -1 24q-1 17 -5 61t-5 66t2 70q2 17 15.5 27.5t30.5 8.5t27.5 -15.5t8.5 -30.5q-2 -41 -1.5 -58t4.5 -58t5 -67v-4q138 34 319 41q1 92 8 213z" />
    <glyph glyph-name="I" unicode="I" horiz-adv-x="220" 
d="M38 708q4 16 18 26t30.5 6.5t26.5 -17.5t7 -31q-12 -62 -13.5 -143.5t1.5 -150.5q1 -45 -1 -187.5t2 -186.5q1 -17 -10.5 -29.5t-28.5 -13.5t-29.5 10.5t-13.5 28.5q-4 44 -2.5 188t1.5 188q-4 65 -2 154t14 158z" />
    <glyph glyph-name="J" unicode="J" horiz-adv-x="491" 
d="M16 213q-1 17 10.5 29.5t28.5 13.5t29.5 -10.5t13.5 -28.5q1 -12 1.5 -29t0.5 -23t2 -16.5t5.5 -18t9.5 -18.5q22 -35 56.5 -46.5t66.5 2.5t47 48q11 25 16 95q5 64 6 157q0 141 -8 282q-1 17 10 29.5t28.5 13.5t30 -10t13.5 -29q9 -143 8 -286q0 -97 -5 -163
q-7 -85 -23 -121q-22 -52 -65 -79t-89 -27t-91 24t-71 68q-10 16 -16.5 31t-9 31.5t-3.5 26t-1.5 28.5t-0.5 26z" />
    <glyph glyph-name="K" unicode="K" horiz-adv-x="753" 
d="M513 760q16 7 31.5 0.5t22.5 -22.5t0.5 -31.5t-22.5 -22.5l-36 -14q-19 -8 -30 -14q-29 -15 -153 -99l-95 -68q-20 -15 -31 -25q-3 -2 -5 -4q2 -8 16 -21q11 -10 29 -23q4 -3 10 -6.5t9.5 -6.5t5.5 -4l87.5 -70.5l91.5 -74.5t84.5 -57t96.5 -45q16 -5 24 -20t2.5 -31.5
t-20.5 -24.5t-32 -2q-51 16 -109 50.5t-96 64l-97 78l-82 66.5l-10.5 7t-11.5 8q-23 16 -38 31q-18 16 -29 34q11 -139 43 -297q4 -16 -5.5 -30.5t-26 -18t-31 6t-17.5 26.5q-35 166 -46 312q-15 212 28 319q6 16 21.5 23t31.5 0.5t23 -22t0 -31.5q-27 -68 -25 -200
q7 11 24 26q13 11 35 28l99 70q128 87 161 105q15 8 38 17q4 1 11 3.5t12.5 5t10.5 4.5z" />
    <glyph glyph-name="L" unicode="L" horiz-adv-x="680" 
d="M41 702q1 17 13.5 28.5t29.5 10.5t28.5 -13.5t10.5 -29.5q-2 -39 0 -79.5t7 -94t7 -84.5q6 -100 5 -241v-16t-0.5 -27t-0.5 -27v-16q18 2 27 2q62 -1 189 -13q121 -11 183 -12q17 0 29 -12.5t11.5 -29.5t-13 -29t-29.5 -11q-65 1 -188.5 12t-183.5 13q-4 0 -7 -0.5
l-9 -1.5t-15 -2q-38 -3 -61 16q-6 5 -9 10t-4 8l-1 3q-1 3 -1 5t-0.5 4.5t-0.5 5.5v12q0 13 1 37v27t0.5 26.5t0.5 15.5q1 139 -5 237q-2 24 -7 79.5t-7.5 100.5t0.5 86z" />
    <glyph glyph-name="M" unicode="M" horiz-adv-x="845" 
d="M136 76q0 -17 -12.5 -29t-29.5 -11.5t-29 13t-11 29.5q1 66 11 203q10 132 11 200q1 64 1 76v10q-4 13 -6 78q0 1 -2 9l-5 20q-3 19 0 32q4 17 17 27q14 11 32 10q21 0 37 -20q5 -6 12 -17l21 -43l37 -89l87 -208l48 -109l25 67q79 216 97 258q15 36 41 88q9 21 17 35
q3 7 6 11q1 3 2 5q2 2 3 4q2 3 5 6q4 3 10 6q15 8 32 2q19 -7 32 -28q7 -11 12 -28q8 -24 13 -62q2 -11 3.5 -23.5t2.5 -22.5t1.5 -18t0.5 -13l1 -6l6 -53.5t6.5 -55.5l6.5 -48.5t8 -52.5l9.5 -46.5t12.5 -51.5t15 -46t19 -50q7 -15 0.5 -31t-22 -23t-31.5 -0.5t-23 22.5
q-11 26 -21 54.5t-16.5 51t-13.5 55.5t-10.5 51t-8.5 55t-6.5 50.5l-6.5 56t-6 52.5q0 1 -0.5 4.5t-1 9.5t-1 13.5t-1.5 17l-2 18.5q-11 -23 -18 -41q-17 -40 -96 -255q-26 -71 -40 -104q-10 -23 -18 -35q-6 -9 -12 -15q-18 -19 -42 -13q-7 1 -13 4.5t-8 6.5l-3 3l-6 8
q-3 6 -8 15q-8 15 -20 42l-56 126l-72 173q0 -5 -1 -27q-1 -70 -11 -204q-9 -135 -11 -199z" />
    <glyph glyph-name="N" unicode="N" horiz-adv-x="687" 
d="M123 45q0 -17 -12.5 -29t-29.5 -11.5t-29 13t-11 29.5q1 26 5.5 157t4.5 156.5v156.5q-1 18 -1.5 28.5t-1.5 23.5t-2 17.5t-4 25t-5 32.5q0 1 -1 3t-3 7.5l-5 13.5q-6 17 -5 30q1 20 15.5 32.5t34.5 10.5q16 -1 33 -14q8 -7 19 -18q15 -17 37 -45l17 -22t14.5 -20.5
t10.5 -15t5 -7.5l134 -173q83 -107 131 -182q1 -2 22 -37v39v35v19q0 23 1 66.5t2 53.5q0 15 2.5 104t3.5 137q0 17 12.5 29t29.5 11.5t29 -13t11 -29.5q0 -47 -2.5 -136.5t-3.5 -104.5q0 -10 -1 -53t-2 -67q0 -4 0.5 -46.5t0.5 -72.5q-1 -45 -3 -72q-1 -17 -3 -27
q-1 -8 -3 -14q-7 -18 -23 -26q-17 -8 -34 -1q-6 2 -10 6q-4 3 -7 6q-2 3 -5 7l-11 17l-30 48l-20 33.5l-17.5 30t-8.5 13.5q-46 72 -126 175q-121 156 -135 176q-1 0 -2.5 2t-4 6t-5.5 8q2 -18 2 -48q0 -135 0.5 -158t-4.5 -158.5t-6 -157.5z" />
    <glyph glyph-name="O" unicode="O" horiz-adv-x="767" 
d="M444 665q0 -6 -2 -11q-5 -17 -20 -25t-31 -2q-12 3 -27.5 8.5t-21.5 7t-15.5 3.5t-18 1.5t-19.5 -2.5q-46 -8 -95 -56t-75 -109.5t-25.5 -120t20.5 -114.5q32 -84 108 -129t186 -28q81 12 129.5 99t47.5 207q0 117 -46 196q-38 65 -95 75zM320 730q6 3 13 5q4 0 22.5 4.5
t36 7t31.5 2.5q61 0 108.5 -31.5t78.5 -85.5q58 -98 58 -238q0 -64 -14 -126.5t-42.5 -118.5t-78 -94.5t-113.5 -48.5q-138 -21 -239.5 39t-143.5 170q-26 71 -26 145.5t32 151t93 135.5q67 66 139 80q23 4 45 3z" />
    <glyph glyph-name="P" unicode="P" horiz-adv-x="709" 
d="M105 421q13 0 24 -8l31 -25.5t23.5 -19t18 -9.5t26.5 -7q37 -6 92.5 12t106.5 53q53 37 79 79t20 77q-11 70 -120 83q-48 5 -102.5 -1t-92.5 -19q-15 -5 -25 -9.5t-21.5 -13t-15 -12t-19 -20l-22.5 -23.5q-3 -63 -3 -137zM37 698q2 17 15.5 27.5t30.5 8.5t27.5 -15.5
t8.5 -30.5q0 -3 -1 -6q28 19 67 32q46 16 109.5 23.5t121.5 0.5q33 -4 62.5 -13.5t57 -26.5t47 -45.5t25.5 -65.5q11 -68 -28.5 -129.5t-104.5 -107.5q-62 -43 -133 -66t-128 -14q-23 4 -44.5 13.5t-34 18t-29.5 23.5q0 -31 8 -264q1 -17 -11 -29.5t-29 -13t-29.5 11.5
t-12.5 29q-1 9 -4 99t-3.5 114.5l-2 100.5t0 116.5t5 99.5t9.5 109z" />
    <glyph glyph-name="Q" unicode="Q" horiz-adv-x="861" 
d="M531 45q-64 -32 -162 -29q-136 4 -214 58q-30 22 -60.5 58.5t-47.5 71.5q-48 101 -50 198t35 170.5t104 119.5q79 56 175.5 56.5t190.5 -60.5q4 0 7 -1q38 -9 75 -41q46 -39 68 -113.5t23 -159.5q0 -80 -18.5 -155t-54.5 -118q63 -34 132 -59q16 -6 23.5 -21.5t1.5 -31.5
t-21.5 -23.5t-31.5 -1.5q-93 34 -175 82zM307 236q-10 13 -7.5 30t16 27t30.5 7.5t27 -16.5q56 -75 156 -141l8 8q25 28 40 89t15 133q-1 96 -28 161q-19 0 -31 15q-29 35 -62 60q-39 4 -41 4q-15 2 -25 13t-11 26q-60 19 -113 11.5t-97 -38.5q-36 -25 -61 -63t-37 -86.5
t-3.5 -110t38.5 -125.5q13 -27 36.5 -55t45.5 -43q57 -41 168 -44q41 -1 72 4q-84 63 -136 134z" />
    <glyph glyph-name="R" unicode="R" horiz-adv-x="745" 
d="M170 385q45 -2 87 6q90 17 156 57q79 48 83 108q1 21 -31 34q-44 18 -122 16q-73 -1 -142 -19q-61 -15 -75 -30q-4 -5 -10 -17q-1 -3 -4 -11q1 -11 2 -29q7 -76 8 -103q13 -3 28 -7q10 -3 20 -5zM24 666q0 17 12.5 29t29.5 11.5t29 -13t11 -29.5v-23q30 15 75 26
q77 20 160 22q95 2 155 -22q38 -15 61.5 -44t20.5 -71q-6 -104 -122 -175q-39 -24 -89 -42q30 -13 58.5 -32.5t48.5 -37t45 -45.5t39 -45.5l40 -51.5l38 -50q11 -14 9 -31t-15.5 -27.5t-30.5 -8.5t-27 15q-15 18 -41.5 53.5t-39 51t-35.5 41.5t-39.5 39.5t-40.5 30t-50 27
t-57 18.5q-20 5 -67 13q-27 4 -43 8q-17 1 -33 3q0 -26 -1.5 -73t-1.5 -74t3.5 -64.5t11.5 -68.5q4 -16 -4.5 -31t-25 -19t-31.5 4.5t-19 25.5q-13 48 -16 102t-1 125.5t2 94.5q0 5 -1 10q-8 11 -7 25q0 11 6 20q-2 26 -9 111q0 3 -1 7q-14 20 -3 42q-5 71 -4 123z" />
    <glyph glyph-name="S" unicode="S" horiz-adv-x="686" 
d="M507 584q6 -16 -1 -32t-23 -22t-32 1t-22 23q-3 8 -6 20l-1 6l-3 9q-3 11 -6 15q-22 28 -70 43t-101 10t-84.5 -28.5t-35.5 -60.5q-3 -28 4.5 -42t31.5 -26q22 -11 106 -32q103 -26 152 -44q92 -34 133 -81q59 -67 27 -158q-16 -47 -61.5 -78t-97.5 -43t-108 -10
q-41 1 -81 10.5t-77.5 27t-65.5 48.5t-40 70q-8 30 3 76q1 5 17 55q5 16 20 24t31 3t24 -20t3 -31q-14 -48 -15 -50q-6 -25 -3 -33q12 -42 63.5 -69t123.5 -29q71 -2 122.5 20.5t63.5 56.5q16 45 -11 75q-28 32 -99 59q-45 16 -144 41q-93 23 -122 38q-48 24 -68 61
q-20 36 -14 89q4 39 22.5 70t46.5 50t59.5 29.5t66.5 14.5q68 6 136 -15.5t106 -68.5q14 -17 21 -44l5 -16q2 -8 4 -12z" />
    <glyph glyph-name="T" unicode="T" horiz-adv-x="736" 
d="M31 653q-17 0 -29 12.5t-11.5 29.5t13 29t29.5 11q62 -1 239 -14q6 2 12 3q15 2 27 -6q167 -11 278 6q17 2 30.5 -8t16 -27t-7.5 -30.5t-27 -16.5q-109 -16 -265 -8q9 -98 6 -173q-2 -44 -11 -106q-2 -9 -7.5 -44.5l-8.5 -54.5q-15 -109 6 -184q4 -16 -4 -31t-24.5 -19.5
t-31.5 3.5t-20 25q-25 91 -8 218l9 55t7 44q9 58 11 98q3 73 -8 174q-168 13 -221 14z" />
    <glyph glyph-name="U" unicode="U" horiz-adv-x="716" 
d="M77 675q1 17 14 28t30 10t28 -14t10 -30q0 -10 -2 -31q-5 -71 -6.5 -111.5t-1 -102t11 -109t30.5 -85.5q28 -55 74.5 -88t94.5 -37q47 -3 86.5 25t62.5 92q46 129 3 396q-2 16 8 30t26.5 16.5t30.5 -7.5t17 -27q12 -79 18 -141.5t1.5 -147t-26.5 -147.5
q-31 -89 -94 -132.5t-139 -38.5q-71 5 -135 50.5t-102 118.5q-13 25 -22.5 57t-15.5 57t-8.5 66.5t-4 61t0 67.5t2 59.5t4.5 62.5t4 52z" />
    <glyph glyph-name="V" unicode="V" horiz-adv-x="686" 
d="M7 674q-6 16 1.5 31.5t23.5 21.5t31.5 -1.5t21.5 -23.5q23 -65 89 -202q65 -135 90 -210q2 -5 11 -39l16 -64q4 -15 8 -26q7 15 19.5 46t13.5 33q26 62 84 230q52 150 92 233q7 15 23 21t31.5 -1.5t21.5 -23.5t-2 -32q-37 -78 -88 -224q-59 -171 -86 -235
q-37 -88 -41 -96q-15 -29 -31 -45q-29 -30 -64 -22q-14 3 -23 13q-3 4 -5.5 8.5t-5.5 11.5q-4 9 -8 24q-7 22 -18 64q-6 21 -17 65q-8 30 -9 33q-24 70 -87 201q-67 140 -92 209z" />
    <glyph glyph-name="W" unicode="W" horiz-adv-x="981" 
d="M4 627q-8 15 -3.5 31.5t19.5 24.5t31.5 3.5t24.5 -19.5q25 -45 43.5 -99t26 -88t20.5 -101q13 -62 16 -79q1 -2 2 -3q0 -2 1 -5t2 -7q5 -20 20 -90q3 -11 5 -25q2 3 6.5 17l6.5 20q17 51 32.5 104t35.5 130.5l27 105.5q6 21 19 63l14 42q4 11 7 17q3 5 5 9l6 8q9 9 22 12
q39 7 69 -29q8 -10 25 -38q10 -18 15 -46q1 -4 2 -10t1 -8q2 -8 3 -13l45.5 -167l42.5 -157q2 -8 5 -18q13 30 19 41q28 62 89 211q57 139 94 214q7 16 23.5 21.5t32 -2t21 -24t-2.5 -31.5q-36 -73 -91 -209q-62 -151 -92 -214q-5 -12 -18.5 -42t-18.5 -42l-19 -39
q-4 -9 -7 -14l-6 -8q-4 -4 -8 -7q-11 -8 -25 -8q-9 0 -16.5 3t-10.5 7l-4 3l-4 6t-3 5q0 1 -1 2q0 1 -0.5 2t-0.5 3q-1 4 -3 10q-5 13 -10 30q-15 48 -23 78l-42.5 157l-45.5 167q-2 9 -4 21q-1 2 -2 8t-1 9q-2 9 -3 14q-13 -40 -18 -59l-28 -106l-36 -134t-33 -104
q-28 -83 -31 -90q-12 -28 -23 -45q-22 -33 -53 -33q-21 0 -34 17q-4 5 -7 11q-2 6 -4 15q-3 11 -8 34q-15 81 -16 87l-18 79l-3 7q0 1 -1 3v3q-1 2 -2 6q-3 14 -17 88q-13 64 -21 97.5t-24 80.5t-37 86z" />
    <glyph glyph-name="X" unicode="X" horiz-adv-x="623" 
d="M446 721q8 15 24 20t31 -3t20 -24t-3 -31q-56 -107 -184 -288l94 -145q19 -30 32 -47q2 -4 5 -8t5 -6t3 -4q2 -4 32 -71q7 -16 0.5 -32t-22 -23t-31.5 -0.5t-23 21.5q-4 11 -8 19.5t-6 14t-4 10t-3 7t-2 4t-1 2.5t-0.5 1.5t-0.5 1.5q-2 2 -5 5.5t-6 8.5q-14 19 -35 50
l-76 118l-8 -12l-52.5 -79.5l-60.5 -93.5l-51 -80q-10 -14 -26.5 -17.5t-31 6t-18 26t5.5 31.5l52 80l61 94.5l53 78.5l28 41l-167 259q-10 15 -6.5 31.5t18 26t31 6t25.5 -17.5l151 -232q107 152 160 251z" />
    <glyph glyph-name="Y" unicode="Y" horiz-adv-x="678" 
d="M9 678q-10 14 -7 31t17 27t31 7t27 -17q74 -104 173 -282q1 -1 3.5 -6.5t8 -15.5t9.5 -18q10 10 24 12q1 1 1 3q11 25 12 28q15 31 31.5 60.5t43 67l36 51.5t46 62l39.5 52q10 13 27 15.5t30.5 -7.5t16 -27t-7.5 -31l-34.5 -45.5l-36 -47.5l-31 -43t-32.5 -48t-27 -45
t-27 -50l-9 -23l-18 -40q-6 -12 -13 -21v-309q0 -17 -12 -29t-29 -12t-29 12t-12 29v263q-6 2 -10.5 4.5t-6.5 4.5l-1 2q-3 2 -5 5l-4 6l-8 13l-19 35l-12.5 24t-11 20.5t-4.5 8.5q-97 174 -169 274z" />
    <glyph glyph-name="Z" unicode="Z" 
d="M37 606q-16 -2 -30 8t-16.5 26.5t7.5 30.5t27 17q64 10 167 12q132 2 161 4q4 0 7 1t9 2.5l14 3.5q40 7 65 -12q31 -24 24 -62q-4 -21 -21 -45q-10 -13 -29 -34q-22 -25 -26 -30q-128 -155 -194 -314q-54 -131 -60 -143q164 28 398 28q17 0 29 -12t12 -29t-12 -29
t-29 -12q-233 0 -394 -29l-31 -12q-41 -18 -72 -2q-17 9 -23 26t0 33q5 13 17 26q2 2 6.5 6t6.5 6q1 2 3 4q13 27 73 171q71 170 206 334l29 33q5 6 9 10q-7 -1 -11 -1q-32 -2 -165 -5q-98 -2 -157 -11z" />
    <glyph glyph-name="bracketleft" unicode="[" horiz-adv-x="428" 
d="M286 696q17 -2 27.5 -15.5t8.5 -30.5t-15.5 -27.5t-30.5 -8.5q-37 4 -85 8q-30 2 -48 2h-13q-4 -4 -5 -16q-1 -1 -2 -51q0 -9 -15 -261q-7 -101 -9 -155q-1 -30 -2 -47q2 -1 4 -1q22 -3 61 -3q26 0 70 3q45 2 55 2q17 0 29 -12t12 -29t-12 -29t-29 -12q-8 0 -50 -3
q-46 -2 -74 -3q-46 0 -75 5q-51 8 -67 37q-4 7 -6 17v8v18q0 19 1 53l9 156q16 250 16 258q1 55 2 62q9 57 52 79q10 5 26 6q9 1 23 1q21 0 53 -3q50 -3 89 -8z" />
    <glyph glyph-name="backslash" unicode="\" horiz-adv-x="436" 
d="M-77 680q-7 16 -0.5 32t22 23t31.5 0.5t23 -21.5q28 -65 58 -128l72 -144.5l61 -118l75.5 -142.5t65.5 -124q8 -15 3 -31t-20 -24t-31 -3t-24 20l-57 106l-61 114l-55 105l-59 116l-51.5 106z" />
    <glyph glyph-name="bracketright" unicode="]" horiz-adv-x="355" 
d="M8 584q-17 -4 -32 4t-19.5 24.5t3.5 31.5t24 20q62 18 94 26q35 10 57 15q13 3 22 4q6 1 11 2q12 0 21 -4q61 -27 66 -119q1 -24 -1 -59q-3 -36 -3 -41q0 -66 -2.5 -235.5t-1.5 -261.5q1 -54 1 -65q-1 -27 -4 -46q-5 -32 -19 -48q-19 -20 -61 -24q-26 -3 -64 -1
q-27 1 -101 10q-17 2 -27.5 15.5t-8.5 30.5t15.5 27.5t30.5 8.5q71 -8 95 -10q31 -1 50 1q5 0 8 1v1q2 14 3 36v61q-1 93 1.5 263t2.5 236q0 8 2 47q2 30 1 49q-1 31 -10 42q-3 0 -9 -2q-20 -4 -54 -13z" />
    <glyph glyph-name="asciicircum" unicode="^" horiz-adv-x="487" 
d="M158 307q-2 -17 -16 -27t-31 -8t-27 16t-8 31q4 25 9 48.5t15.5 52l15 40.5t20.5 47.5t18 41.5l9 20.5t8 16.5l13 33v27q1 17 4 26q2 9 7 15q13 17 33 17q16 0 29 -10q5 -5 9 -10q17 -25 20.5 -65t3.5 -42q8 -36 25.5 -79t28 -65t39.5 -78q8 -16 2.5 -32t-21 -24
t-31.5 -2.5t-24 20.5q-64 128 -84 188l-11.5 -26l-11.5 -26t-9.5 -23.5l-9.5 -24.5t-8 -22.5t-7.5 -25t-5 -24t-4.5 -26.5z" />
    <glyph glyph-name="underscore" unicode="_" horiz-adv-x="616" 
d="M19 -159q-16 -6 -31.5 2t-21 24t2.5 31.5t24 20.5q75 26 244 25q120 0 242 -12q17 -2 28 -15t9 -30t-15 -28t-30 -9q-118 11 -235 12q-154 0 -217 -21z" />
    <glyph glyph-name="grave" unicode="`" horiz-adv-x="291" 
d="M13 714q-13 11 -15 28t9 30t28 15t30 -9l31 -25t18 -14.5t10.5 -9.5t10.5 -10.5t16 -17l28 -28.5q12 -12 12 -29t-12 -29t-29 -12t-29 12l-27.5 28l-15.5 16t-9.5 9t-9.5 8.5t-16.5 13.5z" />
    <glyph glyph-name="a" unicode="a" horiz-adv-x="566" 
d="M374 408q-96 68 -159 46q-55 -19 -78 -100q-25 -84 -0.5 -171.5t84.5 -115.5q22 -10 40.5 -6.5t40.5 22.5q44 39 60 134q3 21 5.5 46t3 42.5t1.5 45.5t2 41v16zM382 48q-12 -15 -26 -27q-81 -71 -171 -28q-93 44 -128 167q-31 111 1 217q15 55 48 96.5t82 58.5
q84 29 188 -28q1 2 2 5q1 5 3 8q8 15 24 21q22 8 40 -7q8 -6 12 -16q3 -6 3 -13q1 -7 1 -21q0 -4 -1 -18.5t-1 -19.5v-70v-67q0 -13 1 -39t1 -39q2 -160 5 -204q1 -17 -10 -30t-28 -14t-30 10t-14 28z" />
    <glyph glyph-name="b" unicode="b" horiz-adv-x="616" 
d="M123 204q14 -4 22 -17l13 -23l9.5 -17t8.5 -12q47 -46 104.5 -41t103.5 54q30 32 43 71.5t2 88t-51 91.5q-30 33 -65.5 45.5t-84.5 8.5q-39 -3 -64 -13t-47 -32l2 -35q4 -70 4 -169zM21 713q2 17 15.5 27.5t30.5 8.5t27.5 -15.5t8.5 -30.5q-8 -71 5 -199q44 25 114 31
q134 11 218 -80q55 -61 70 -130.5t-4 -128t-62 -104.5q-41 -44 -95 -66t-115.5 -12t-111.5 58v-34q0 -17 -12 -29t-29 -12t-29 12t-12 29v81v86.5t-0.5 78.5t-2.5 85q-1 6 -1 12q-12 10 -13.5 26.5t8.5 28.5q0 10 -3.5 44l-5 48t-3.5 44t-2 49t0.5 44.5t3.5 47.5z" />
    <glyph glyph-name="c" unicode="c" horiz-adv-x="562" 
d="M454 383q10 -14 8 -30.5t-16 -27t-30.5 -8.5t-27.5 16q-5 6 -20.5 27l-20.5 27.5t-17 19.5t-22 20t-22 13q-109 53 -167 -24q-27 -36 -34 -89t10 -111q8 -24 30.5 -52t53.5 -49q66 -45 113 -26q10 3 17.5 7.5t15 13t11 14l14 21l16.5 24.5q9 14 26 17.5t31 -6t17.5 -26.5
t-6.5 -31q-3 -4 -14 -21.5t-17.5 -26.5t-19 -22.5t-27.5 -23.5t-34 -18q-88 -34 -190 36q-40 28 -71.5 66.5t-43.5 78.5q-23 71 -13.5 145.5t49.5 127.5q45 60 113.5 74t155.5 -25q18 -9 34.5 -20.5t32 -28.5t23 -26t23.5 -31t19 -25z" />
    <glyph glyph-name="d" unicode="d" horiz-adv-x="580" 
d="M383 254q-5 73 -8 133q-7 1 -13 5l-23.5 15.5t-24 15l-17.5 9t-20 7.5q-73 15 -123.5 -27t-63.5 -115q-12 -71 19 -122q32 -54 103 -59q34 -2 43 2q8 3 32 28q9 10 17 20.5t11.5 16.5t13.5 24.5l14 25.5q13 23 40 21zM374 791q1 17 14 28t30 10t28 -14t10 -30
q-3 -41 -4 -89.5t-1 -86t2 -99.5t3 -90.5t5.5 -101.5l5.5 -90t7 -98.5t6 -86.5q1 -17 -10 -30t-28 -14t-30 10t-14 28q-2 20 -4.5 57.5l-3.5 53.5q-19 -33 -43 -58q-36 -38 -59 -48q-28 -12 -82 -8q-114 8 -168 98q-47 78 -29 180q8 46 31 87.5t58 73.5t86 45.5t109 0.5
q34 -6 78 -34q-6 178 3 306z" />
    <glyph glyph-name="e" unicode="e" horiz-adv-x="570" 
d="M387 345q-3 9 -10 19q-24 37 -72 62q-34 17 -65.5 20.5t-62.5 -10.5t-52 -47q-17 -25 -26 -52l169 3q65 2 102 4q10 0 17 1zM91 255h-7q2 -50 24.5 -93.5t58.5 -71.5q57 -45 112 -31q61 15 92 106q5 16 20.5 24t31.5 2.5t24 -21t2 -31.5q-22 -66 -61 -107t-89 -53
q-47 -12 -94.5 1t-88.5 45q-40 31 -67.5 76t-40.5 98t-1.5 115t48.5 119q28 43 65 66.5t76 27.5t75.5 -3t70.5 -25q68 -34 104 -89q47 -71 9 -125q-8 -12 -22 -17q-3 -1 -8 -2q-6 -1 -14 -2q-13 -1 -36 -3q-39 -2 -105 -3q-5 0 -179 -3z" />
    <glyph glyph-name="f" unicode="f" horiz-adv-x="470" 
d="M-1 341q-17 -2 -31 8t-16 27t8 31t27 16q29 4 62 10q-11 100 2 176q10 55 41 92.5t77 47.5q45 10 89 -10.5t76 -65.5q6 -9 12 -20.5l12 -24t8 -15.5q8 -15 2.5 -31.5t-20.5 -24.5t-31.5 -2.5t-24.5 20.5q-5 9 -9.5 20t-8 17.5t-8.5 12.5q-37 53 -80 43q-17 -4 -32 -21.5
t-21 -51.5q-12 -63 -4 -143q5 1 16 4q109 26 168 34q17 2 30.5 -8.5t15.5 -27.5t-8.5 -30.5t-27.5 -15.5q-54 -7 -158 -32q-18 -5 -24 -6q1 -8 13.5 -75t17.5 -104q5 -40 11.5 -116t7.5 -92q2 -17 -9 -30t-28 -15t-30 9t-15 28q-2 16 -7.5 90t-11.5 114q-4 31 -15.5 92
t-14.5 81q-33 -7 -61 -11z" />
    <glyph glyph-name="g" unicode="g" horiz-adv-x="534" 
d="M344 352q-19 0 -31 15q-54 69 -96 55q-17 -6 -34.5 -27t-29.5 -55q-27 -76 -9 -146q18 -69 75 -86q36 -11 59 3q22 14 37 51q26 62 29 172v18zM350 64q-13 -13 -28 -23q-54 -34 -127 -13q-52 16 -85 55t-46 90q-24 95 11 194q16 48 46 84t71 50q77 25 152 -46v2
q-1 31 -1 51v8t1 6q2 7 6 12q6 9 16 14q18 10 36 0q7 -3 12 -8.5t7 -8.5l1 -4l2 -6q1 -2 1 -4.5v-3.5v-1v-1q1 -4 1 -15v-38v-1q1 -18 3.5 -83t4 -119.5t1.5 -104.5q-1 -121 -12 -201q-15 -105 -51 -151q-26 -32 -60.5 -47t-68 -14t-66.5 13q-47 17 -87 51t-61 76
q-8 15 -12 36q0 2 -1.5 10l-2.5 13q-4 17 5 31.5t25.5 18.5t31 -5t18.5 -25q0 -2 5 -28q2 -9 3 -13q15 -27 43.5 -51.5t60.5 -36.5q66 -24 103 23q22 27 33 110q7 45 9 104z" />
    <glyph glyph-name="h" unicode="h" horiz-adv-x="536" 
d="M12 690q2 17 15.5 27.5t30.5 8.5t27.5 -15.5t8.5 -30.5q-14 -111 13 -285q7 18 16 34q33 64 80 88q48 25 99 4q42 -17 73.5 -60t45.5 -96q11 -42 14 -96.5t1.5 -85t-8.5 -99.5l-8 -79q-1 -17 -14 -28.5t-30 -10t-28.5 14.5t-10 30t8 83t8 93.5t-0.5 74t-12 81.5
q-10 40 -30 66.5t-40 34.5q-15 7 -30 -1q-24 -12 -46 -52q-31 -60 -36 -147q0 -11 1 -52q2 -65 3 -83q1 -51 -1 -82q-1 -20 -4 -34q-3 -22 -12 -34q-7 -11 -20 -16q-21 -8 -39 6q-5 4 -9 9t-5 8l-1 4q-2 4 -3 11q0 7 -2 22q-1 18 -4 81q-1 15 -2 38t-1.5 29t-2 21.5t-3.5 29
t-6 38.5q-2 13 -13.5 82t-15 96.5t-9 83t-5 100t6.5 88.5z" />
    <glyph glyph-name="i" unicode="i" horiz-adv-x="222" 
d="M23 499q1 17 14 28.5t30 10t28.5 -14.5t9.5 -30q-7 -91 -9.5 -150t3 -136t22.5 -143q4 -16 -4.5 -31t-25 -19t-31.5 4.5t-19 25.5q-19 72 -25 156.5t-3.5 145t10.5 153.5zM114 660q0 -17 -12 -29t-29 -12t-29 12t-12 29t12 29t29 12t29 -12t12 -29z" />
    <glyph glyph-name="j" unicode="j" horiz-adv-x="381" 
d="M155 475q-2 17 9 30.5t28 15t30.5 -9.5t14.5 -28q3 -31 12.5 -152t16.5 -187q1 -13 6.5 -51t8 -67.5t0.5 -58.5q-2 -42 -21 -84t-49 -64q-44 -32 -89 -12q-42 19 -70 81q-5 12 -8.5 28t-5.5 32.5t-2 17.5q-4 17 5.5 31t26.5 17.5t31 -6t17 -26.5q3 -14 4.5 -26.5
t2.5 -19.5t5 -14q15 -34 28 -40q1 -1 6 3q13 10 24.5 34.5t12.5 51.5q1 25 -1 49t-7 60t-7 56q-7 65 -16.5 187t-12.5 152zM216 669q0 -17 -12 -29t-29 -12t-29 12t-12 29t12 29t29 12t29 -12t12 -29z" />
    <glyph glyph-name="k" unicode="k" horiz-adv-x="498" 
d="M307 498q13 10 30 7.5t27 -16t7.5 -30.5t-16.5 -27l-117 -86l-72 -55q-1 -1 -3 -2l5 -5q28 -26 77 -65q98 -79 134 -101q14 -9 18 -25.5t-5 -31t-25.5 -18.5t-31.5 5q-40 25 -142 107q-51 41 -81 68q-18 17 -28 29q-1 2 -3 4q7 -103 22 -218q2 -16 -8.5 -30t-27 -16
t-30.5 8.5t-16 27.5q-59 438 11 651q5 16 20.5 24t31.5 2.5t24 -21t2 -31.5q-38 -118 -32 -329l2 2l9 9q9 8 26 21l74 56z" />
    <glyph glyph-name="l" unicode="l" horiz-adv-x="220" 
d="M29 672q1 17 14.5 28t30.5 9.5t28 -15t9 -30.5q-6 -73 -3 -182q0 -10 3 -80.5t3 -108.5q1 -27 0.5 -78.5t-0.5 -70.5q0 -85 6 -144q2 -17 -9 -30t-28 -15t-30 9t-15 28q-6 62 -7 152q0 19 0.5 70t0.5 79q-1 37 -3.5 106.5t-2.5 79.5q-4 115 3 193z" />
    <glyph glyph-name="m" unicode="m" horiz-adv-x="845" 
d="M41 510q3 17 16.5 27t30.5 7.5t27 -16t8 -30.5q-6 -40 -8 -86q73 107 176 112q26 2 38 0q33 -3 52 -24q23 -25 32 -79q1 -2 1 -5q50 71 118 90q66 18 103 3q53 -20 79 -95q17 -51 23 -134q4 -48 5 -136q1 -76 3 -96q2 -17 -8.5 -30.5t-27.5 -15.5t-30.5 8.5t-15.5 27.5
q-3 24 -4 105q-1 85 -4 131q-5 72 -19 113q-14 39 -31 46q-12 4 -51 -7q-36 -10 -66 -48.5t-50 -99.5q-14 -45 -21 -95v-13q1 -61 6 -112v-5.5v-5.5q1 -2 1 -4v-5l-2 -10q-3 -9 -10 -16q-17 -18 -42 -11q-12 4 -20 14q-2 3 -4 7q-2 2 -3 5q0 2 -1 4q0 1 -1 4q0 1 -1 4.5
t-1 6.5q-14 61 -4 144q3 125 3 136q-1 50 -6 81q-4 25 -10 35h-2q-5 1 -25 0q-78 -4 -135 -114q-28 -54 -43 -121q2 -55 2 -85q1 -37 5 -92q2 -22 2 -29v-12q-1 -7 -3 -13q-4 -11 -13 -18q-18 -15 -40 -7q-29 11 -40 52q-5 21 -7 52q-2 32 0 76q1 38 11 83q-7 197 7 296z
" />
    <glyph glyph-name="n" unicode="n" horiz-adv-x="548" 
d="M46 517q-1 17 11 29.5t29 13t29.5 -11.5t12.5 -29q2 -60 8 -139q68 109 162 129q34 8 42 8q38 4 63 -16q19 -14 29 -47q7 -22 11 -56q6 -53 5 -139q0 -56 -3.5 -140t-3.5 -97q0 -17 -12 -29t-29 -12t-29 12t-12 29q0 13 3.5 97t3.5 140q0 82 -5 130q-3 26 -8 41
q-1 3 -2 5h-3q-3 0 -32 -6q-40 -9 -77 -49t-61 -100q-20 -48 -26 -96q3 -48 7 -73q0 -4 3 -15q1 -5 3 -12.5t2 -9.5q4 -14 4 -20q1 -6 0 -11q-1 -10 -6 -19q-7 -11 -20 -16t-26 -1q-12 3 -20 12l-4 6t-4 7q-32 63 -22 154q-2 34 -3 46q-18 219 -20 285z" />
    <glyph glyph-name="o" unicode="o" horiz-adv-x="562" 
d="M316 442l-39 9q-94 23 -144 -10q-31 -21 -51 -65.5t-23.5 -99.5t10.5 -102t41 -71q70 -65 138 -49q62 14 101 85q23 43 29.5 93t-9 106.5t-53.5 103.5zM432 464q14 -11 15.5 -28t-9.5 -30q-2 -2 -3 -4q31 -81 26.5 -159t-40.5 -143q-26 -48 -66 -81.5t-89 -44.5
q-109 -26 -212 67q-44 41 -63.5 106t-14.5 135t33 131.5t78 95.5q76 51 191 26v1q12 12 29 13t29.5 -10.5l24.5 -23.5q8 -2 13 -5q8 -4 15.5 -10l22 -18.5z" />
    <glyph glyph-name="p" unicode="p" horiz-adv-x="576" 
d="M119 171q24 1 37 -20l12 -21.5t11.5 -20l10 -15t11 -14t11.5 -10t15 -8.5q20 -9 52 -5t55 19q47 30 58 101.5t-19 142.5q-29 70 -76.5 93.5t-103.5 -14.5q-37 -26 -49 -44q-2 -3 -30 -58q0 -34 5 -126zM50 467q4 17 19 25.5t31 4.5q14 -4 23 -15.5t8 -25.5l16 11
q95 66 187 20q75 -38 115 -136q24 -58 28 -121t-20 -126t-79 -98q-38 -24 -87.5 -31t-97.5 11q-40 19 -70 59q0 -24 -0.5 -133t-0.5 -133q0 -17 -12 -29t-29 -12t-29 12t-12 29v302q-1 29 -5 100t-4 111q-3 12 1 24q1 85 18 151z" />
    <glyph glyph-name="q" unicode="q" horiz-adv-x="716" 
d="M335 253q1 92 6 146v4q-31 54 -64 72q-22 10 -42 9t-54 -12q-45 -15 -77.5 -48.5t-47.5 -76t-13.5 -91t22.5 -92.5q21 -45 50.5 -72t59.5 -33q64 -14 116 70q30 49 44 124zM437 397q13 -25 -7 -46q-1 -11 -4 -39q-4 -39 -9 -67q0 -19 -1.5 -87.5t-1.5 -99.5t2 -82.5
t6 -92.5q0 -1 1 -2l29.5 41.5t28.5 37.5l32.5 40l29.5 36q10 13 27 15t30.5 -8.5t15.5 -27.5t-9 -31l-34 -42l-37.5 -47l-29.5 -40t-32 -47q0 -1 -0.5 -2t-2 -7l-3.5 -14q-13 -49 -53 -54q-21 -3 -37 14q-5 5 -8.5 12t-7.5 18q-5 16 -10 41q-11 45 -12 59q-8 72 -8 170
q-76 -88 -174 -67q-52 11 -95.5 51.5t-71.5 98.5t-30.5 123.5t17.5 124t66 106.5t111 68q29 10 50 14t52 1t58 -18q39 -20 71 -63q18 3 32 -9q10 -8 15 -22q1 -5 2 -11q1 -7 0 -17v-23q1 -2 2 -5z" />
    <glyph glyph-name="r" unicode="r" horiz-adv-x="444" 
d="M32 477q0 17 12 29t29 12t29 -12t12 -29v-30q31 26 68 37q73 20 124 -29q16 -15 25 -41q1 0 6 -15l3 -9q8 -16 2 -32t-21.5 -23.5t-31.5 -1.5t-23 21q-4 8 -7 18q-1 1 -2.5 6t-2.5 8l-4 9q-18 17 -46 9q-32 -9 -50 -35q-24 -34 -36 -134q-3 -31 -10 -163l2 -25
q1 -27 -7 -46q-2 -7 -6 -12q-6 -8 -16 -13q-23 -10 -43 5q-14 11 -16 27q0 3 -1 8q0 7 1 26q3 60 4 78v55q0 91 1 125q5 167 5 177z" />
    <glyph glyph-name="s" unicode="s" horiz-adv-x="532" 
d="M402 414q11 -13 9 -30t-15 -28t-30 -9t-28 15q-6 8 -15.5 19.5t-12.5 15.5t-9.5 10t-12 9t-14.5 7q-18 7 -49 8.5t-63 -4.5q-29 -6 -41 -18q-9 -9 -8 -23q2 -1 3 -2q10 -7 32 -16q18 -8 57.5 -22t57.5 -21q82 -32 122 -69q61 -58 44 -139q-9 -48 -49 -78t-90 -43
q-42 -13 -94 -9.5t-85 26.5q-17 12 -29.5 25.5t-20 32t-10.5 27.5t-7.5 30.5t-4.5 23.5q-4 16 5 30.5t25.5 18.5t31 -5t18.5 -26q2 -8 5 -22.5t4.5 -20t4.5 -14.5t5.5 -13t7.5 -9t11 -10q15 -10 44.5 -12t67.5 7q35 9 55.5 25t24.5 32q7 36 -21 63q-28 26 -95 52
q-18 7 -58.5 21.5t-58.5 21.5q-32 14 -50 27q-30 23 -34 53q-8 58 31 96q29 29 81 41q42 9 86 6t74 -15q16 -6 28.5 -13.5t23.5 -17.5t16.5 -16.5t15.5 -20t14 -17.5z" />
    <glyph glyph-name="t" unicode="t" horiz-adv-x="397" 
d="M-56 430q-17 -2 -31 8t-16 27t8 31t27 16q49 7 117 8q1 94 6 132q2 17 15.5 27.5t30.5 8.5t27.5 -15.5t8.5 -30.5q-4 -33 -5 -120q62 1 103 5q17 2 30 -9t15 -28t-9 -30t-28 -15q-43 -4 -111 -6q0 -48 2 -94q4 -106 13 -174q5 -36 12 -58q2 -6 3.5 -10t1.5 -5l1 -2
q6 -5 10.5 -7t12.5 -2t13 1t20.5 4.5t27.5 5.5q16 3 30.5 -7t17.5 -26.5t-7 -31t-27 -17.5q-1 0 -20 -4.5t-30.5 -5.5t-31 -1t-37.5 8t-34 22q-19 17 -30 55q-8 27 -14 70q-11 72 -15 182l-2 96q-62 -2 -105 -8z" />
    <glyph glyph-name="u" unicode="u" horiz-adv-x="547" 
d="M41 478q1 17 14.5 28t30.5 9.5t28 -15t9 -30.5q-1 -11 -7 -68.5t-7 -80t0.5 -61t9.5 -66.5q17 -60 72 -58q26 1 52.5 17t42.5 42q10 18 18.5 44.5t11.5 42.5t10 58.5t8 51.5q8 42 12 87q2 17 3 22q2 13 10 23q17 18 40 13q14 -3 24 -13q13 -15 19 -48q3 -22 5 -56
q2 -54 -1 -144q-1 -46 -4 -98l-5.5 -94t-3.5 -51q-1 -17 -13.5 -28.5t-29.5 -10.5t-28.5 13.5t-10.5 29.5q0 9 2.5 49.5t4.5 68.5l-2 -2q-26 -44 -70 -70.5t-92 -28.5q-53 -2 -95.5 28t-59.5 90q-9 34 -11.5 81t-1 73t8 87t6.5 65z" />
    <glyph glyph-name="v" unicode="v" horiz-adv-x="533" 
d="M-10 472q-6 16 2 31.5t24 21t31.5 -2.5t20.5 -24q19 -55 62 -148q51 -110 67 -153q7 -17 14 -40l48 101q68 146 95 212q6 16 22 23t31.5 0.5t22.5 -22.5t0 -31q-27 -69 -96 -217q-36 -78 -60 -124l-23 -43q-5 -9 -10 -15q-11 -14 -24 -19q-30 -11 -50 16q-5 6 -9 17
q-5 9 -11 31q-18 60 -26 81q-16 41 -66 148q-45 97 -65 157z" />
    <glyph glyph-name="w" unicode="w" horiz-adv-x="711" 
d="M21 465q-6 16 1 31.5t23 22t31.5 -0.5t22.5 -23q56 -148 89 -304l9 41q3 11 27 130q6 30 10 44q2 9 4 15l2 8q2 4 5 8q12 16 32 17q21 1 38 -16q8 -7 16 -19q11 -17 26 -49q22 -46 59 -139l18.5 -44.5t14.5 -36.5q1 6 3 12q12 63 40 176.5l38 155.5q3 17 17.5 26
t31.5 5.5t26 -18t5 -31.5q-9 -42 -37 -155t-41 -175q0 -3 -14 -87q-4 -24 -8 -37q-2 -10 -5 -16q-3 -7 -8 -12q-11 -14 -29 -16q-19 -2 -34 12q-5 4 -9 10t-9 17q-8 16 -21 47q-1 1 -55 137l-43 103l-19 -90q-19 -86 -32 -132q-9 -30 -17 -47q-6 -13 -13 -21
q-19 -22 -46 -16q-44 9 -46 65q0 9 0.5 16.5t0.5 8.5v5q-15 65 -15 70q-33 156 -89 302z" />
    <glyph glyph-name="x" unicode="x" horiz-adv-x="505" 
d="M25 477q-10 14 -6.5 30.5t17.5 26.5t30.5 6.5t26.5 -17.5q27 -39 122 -186q2 3 4 7l32 54l41.5 67.5t38.5 55.5q11 14 28 16t30.5 -8.5t15.5 -27.5t-8 -30q-19 -24 -36 -51l-38 -63l-34 -57l-25 -39q64 -96 122 -163q11 -13 9.5 -30t-14.5 -28.5t-30 -10t-29 14.5
q-51 61 -107 143q-78 -113 -95 -141q-10 -14 -26.5 -17.5t-31 6t-18 26t5.5 31.5l64.5 95.5t50.5 73.5l-44.5 69.5l-51 79.5z" />
    <glyph glyph-name="y" unicode="y" horiz-adv-x="548" 
d="M368 510q5 16 20.5 24t31.5 2.5t24 -21t2 -31.5q-33 -96 -97 -244l-24.5 -57l-26.5 -62q8 -14 4 -30.5t-18 -25.5q-6 -4 -12 -5l-24 -57q-17 -45 -46 -131q-30 -93 -46 -135q-7 -16 -22.5 -23t-31.5 -0.5t-23 22t-1 31.5q16 40 46 131q29 88 48 135q14 37 32 80l-41.5 59
l-46.5 68t-40 64.5t-39 75t-27 72.5q-4 16 4 31t24.5 19.5t31.5 -3.5t20 -25q5 -18 12.5 -37l13.5 -33t18.5 -35.5t18 -32t22 -35l21 -31l24.5 -35t23 -32.5l31 70q62 144 94 237z" />
    <glyph glyph-name="z" unicode="z" horiz-adv-x="556" 
d="M30 395q-17 -4 -31.5 5t-18 26t5.5 31.5t26 17.5l153 32q74 14 99 18q41 6 65 8q17 2 27 1q9 0 17 -3q24 -8 29 -31t-9 -53q-9 -18 -27 -44q-27 -41 -81 -104l-85.5 -99.5t-63.5 -73.5l-22 -28q34 2 87 4q200 10 213 10q17 1 29.5 -11t13 -29t-11.5 -29.5t-29 -12.5
q-12 -1 -211 -10l-122 -6q-27 -1 -41 -1q-8 -1 -13 -1q-3 0 -5.5 0.5t-4.5 0.5q-9 1 -19 8q-14 11 -18 28q-4 16 4 32q6 12 20 23q2 2 4.5 4t5.5 4t5 4l4 3l25 31l22 28l64 73.5l86 100.5q49 58 74 94q-8 -1 -18 -3q-24 -4 -97 -18q-78 -14 -151 -30z" />
    <glyph glyph-name="braceleft" unicode="{" horiz-adv-x="603" 
d="M270 741q17 -2 27 -16t8 -31t-16 -27t-31 -8q-7 1 -17 4q-1 0 -5 1t-7 2t-5 1q-27 -8 -40.5 -39t-17.5 -92q-1 -23 -1 -67v-49q-1 -72 -15 -106q-20 -53 -63 -80q5 -6 17 -25q32 -48 44 -138q1 -5 8 -69q4 -38 9 -60q11 -56 38 -75q35 -27 117 -15l23 3.5t19.5 4.5
l14.5 4.5t14.5 6.5l13.5 7t17 9.5l20 11.5q14 8 30.5 3.5t25 -19t4 -31t-19.5 -25.5l-19.5 -11.5l-19 -11t-16.5 -8.5t-19.5 -8t-20 -6t-26 -6.5l-29.5 -5.5q-116 -17 -178 30q-52 39 -70 124q-6 27 -10 69q-7 63 -8 67q-9 71 -30 103q-17 26 -24 31q-1 0 -3.5 -0.5
t-5.5 -1.5q-16 -4 -28 -4q-33 2 -45 32q-8 19 0 37q7 18 25 25q12 5 30 5q3 0 9 -0.5t10 -0.5h4q28 11 42 23t24 35q7 20 8 77q0 4 0.5 50t1.5 69q2 34 7 61.5t16.5 59.5t36 54.5t59.5 31.5q20 5 45 -1q1 0 14 -3q5 -2 8 -2z" />
    <glyph glyph-name="bar" unicode="|" horiz-adv-x="236" 
d="M56 726q5 16 20.5 24t31.5 2.5t24 -21t2 -31.5q-33 -99 -26 -288q1 -41 7.5 -151.5t6.5 -163.5q0 -17 -12 -29t-29 -12t-29 12t-12 29q0 53 -7 161.5t-8 150.5q-7 204 31 317z" />
    <glyph glyph-name="braceright" unicode="}" horiz-adv-x="485" 
d="M-42 636q-16 -6 -31 2t-20.5 24.5t2.5 31.5t25 20q29 10 48.5 14t48.5 5t56 -10t53 -34q38 -35 51.5 -78t13.5 -95q0 -17 -1 -52t0 -55.5t7 -39.5q8 -29 32 -48.5t66 -35.5q2 0 4.5 -0.5t8.5 -0.5t9 -1q18 -1 29 -7q17 -9 23 -27t-3 -36q-18 -34 -65 -32h-19q-1 1 -2 0
q-23 -7 -45.5 -22t-30.5 -30q-12 -23 -11 -66q0 -16 3 -47q3 -36 4 -51q1 -32 -2 -58t-12.5 -56t-32 -56.5t-56.5 -47.5q-30 -18 -60.5 -26t-63.5 -4.5t-53.5 8t-54.5 14.5q-16 5 -24 20t-3.5 31.5t19.5 24.5t32 4q40 -12 64 -17t50.5 -2t49.5 17q41 25 53.5 58.5t10.5 85.5
q-1 13 -4 48q-3 33 -3 52q-1 66 22 108q21 39 72 68q-67 42 -87 110q-7 25 -9 53.5t-0.5 69t1.5 45.5q0 40 -8.5 66.5t-30.5 45.5q-25 23 -53.5 23.5t-72.5 -14.5z" />
    <glyph glyph-name="asciitilde" unicode="~" horiz-adv-x="653" 
d="M53 168q0 -17 -12 -29t-29 -12t-29 12t-12 29q0 90 37 130q36 40 101 30q33 -5 93 -30q57 -23 75 -28q45 -10 85 -11q48 -1 68 13q5 4 9.5 9t9 13.5t7.5 15l9 20.5t9 22q7 15 23 21.5t31.5 -0.5t22 -23t-0.5 -32q-1 -2 -7 -17t-11 -25t-13.5 -24.5t-19 -27t-23.5 -20.5
q-41 -29 -115 -28q-49 1 -102 14q-26 6 -89 32q-51 21 -74 24q-21 4 -28 -4q-15 -16 -15 -74z" />
    <glyph glyph-name="exclamdown" unicode="&#xa1;" horiz-adv-x="312" 
d="M180 521q10 -5 16 -11q18 -17 17 -41q-1 -21 -19 -38q-25 -26 -58 -21q-27 5 -45 27q-18 24 -13 51q4 19 16.5 30.5t30.5 15.5t30 1q15 -3 25 -14zM100 330q0 17 12 29.5t29.5 12.5t29.5 -12.5t12 -29.5q0 -42 -7 -121q-10 -123 -11 -136q-12 -163 11 -232
q5 -16 -2.5 -31.5t-24 -20.5t-31.5 2.5t-21 23.5q-28 85 -15 264q1 14 12 137q6 76 6 114z" />
    <glyph glyph-name="cent" unicode="&#xa2;" horiz-adv-x="606" 
d="M196 110q6 18 24 68.5l28 78.5q42 121 62 205q-12 -1 -24 -5q-24 -7 -45.5 -25t-41 -47t-30 -75.5t-8.5 -104.5q3 -57 35 -95zM339 624q1 17 14.5 28t30.5 9.5t28 -15t9 -30.5q-4 -46 -13 -96h1q71 -45 71 -138q0 -18 -12 -30t-29.5 -12t-29.5 12t-12 30q0 25 -10 44
q-21 -82 -61 -197l-29.5 -84l-28.5 -80q15 -3 30 -4q52 -2 89 32.5t37 103.5q0 17 12 29t29 12t29 -12t12 -29q0 -71 -31 -122.5t-78 -75t-102 -21.5q-27 1 -54 8q-22 -68 -36 -124q-4 -17 -18.5 -26t-31.5 -4.5t-25.5 19t-4.5 31.5q15 62 42 142q-84 63 -88 178
q-6 134 46.5 221t135.5 113q34 10 67 9q7 41 11 79z" />
    <glyph glyph-name="sterling" unicode="&#xa3;" horiz-adv-x="644" 
d="M380 374q17 -3 26.5 -17.5t6 -31.5t-18 -26.5t-30.5 -5.5q-65 12 -166 15q32 -66 27 -120q-5 -48 -36 -92h3q27 -3 137 -29q72 -16 101 -12q14 2 21.5 9t11.5 23t19 25t31.5 5t25.5 -19t5 -31q-21 -81 -101 -94q-46 -7 -133 14q-105 24 -128 27q-59 7 -86 -11
q-15 -9 -31.5 -5t-26.5 18q-8 13 -5.5 28.5t13.5 25.5q4 7 11 12q80 60 85 114q3 37 -34 104q-1 2 -2 5l-21 -2q-42 -6 -57 -16q-14 -9 -31 -6t-26.5 17.5t-6 31.5t17.5 26q28 19 81 27q-18 39 -25.5 73.5t0.5 81t37 91.5q44 68 121 89.5t152 2.5q35 -9 65.5 -27t55 -45.5
t32.5 -63t-3 -79.5q-4 -17 -19 -25.5t-31.5 -4t-25 19.5t-4.5 31q10 38 -14 69t-77 44q-54 14 -105 -0.5t-77 -55.5q-23 -35 -26.5 -69t5 -60t29.5 -64h33q115 -1 194 -17z" />
    <glyph glyph-name="currency" unicode="&#xa4;" horiz-adv-x="626" 
d="M294 500q-13 -20 -36 -20q-68 0 -101 -52q-31 -51 -17.5 -118.5t62.5 -97.5q58 -34 145 3q48 20 60 69.5t-13 108.5q-23 59 -63 90q-20 14 -37 17zM510 176q14 -10 16 -27t-8.5 -31t-27.5 -16t-30 8q-12 10 -38 34q-6 7 -11 11q-15 -10 -32 -17q-126 -52 -219 3
q-10 6 -19 13q-27 -27 -49 -57q-11 -14 -28 -16.5t-30.5 8t-16 27.5t7.5 31q28 37 61 70q-20 35 -28 76q-20 99 28 177q-3 3 -10.5 9t-11.5 10q-21 18 -34 26q-14 10 -17.5 27t6 31t26.5 17.5t31 -5.5q18 -12 42 -33q5 -4 13 -11t12 -11q33 22 74 30q6 9 17 13
q74 31 147 -24l17 -15q4 4 15 16q26 28 45 41q14 10 31 6.5t27 -17.5t6.5 -31t-17.5 -26q-12 -9 -32 -30l-23 -24q12 -22 22 -45q13 -33 18.5 -68t0.5 -73t-22 -68l11 -11q22 -21 30 -28z" />
    <glyph glyph-name="yen" unicode="&#xa5;" horiz-adv-x="678" 
d="M500 296q18 -2 28 -15.5t8 -31t-15.5 -27.5t-30.5 -8q-44 6 -148 2v-198q0 -17 -12 -29t-29 -12t-29 12t-12 29v195q-147 -5 -205 14q-16 6 -23.5 21t-2.5 31.5t20.5 24t31.5 2.5q42 -14 158 -11l-2 2l-4 6l-8 13l-19 35l-12.5 24t-11 20.5t-4.5 8.5q-2 3 -4 7
q-4 -1 -7 -1h-132q-17 0 -29 12t-12 29.5t12 29.5t29 12h92q-62 107 -118 185q-10 14 -7 31t17 27t31 7t27 -17q74 -104 173 -282q1 -1 3.5 -6.5t8 -15.5t9.5 -18q10 10 24 12q1 1 1 3q11 25 12 28q15 31 31.5 60.5t43 67l36 51.5t46 62l39.5 52q10 13 27 15.5t30.5 -7.5
t16 -27t-7.5 -31q-7 -10 -36 -47.5t-40.5 -53.5l-31.5 -44.5t-35 -52.5q70 1 91 1q18 0 30 -12t12 -29.5t-12 -29.5t-30 -12q-24 0 -70 -0.5t-67 -0.5q-1 -3 -4 -10t-4 -11l-18 -40q-6 -12 -13 -21v-28q108 4 158 -3z" />
    <glyph glyph-name="brokenbar" unicode="&#xa6;" horiz-adv-x="246" 
d="M61 707q3 17 17 27t30.5 7t26.5 -17t8 -31q-13 -76 -13 -218q0 -17 -12 -29t-29.5 -12t-29.5 12t-12 29q0 148 14 232zM65 286q6 16 21 24t31.5 3t24.5 -20.5t3 -31.5q-5 -15 -8.5 -31t-5.5 -37t-3.5 -33t-2 -39t-0.5 -35.5v-40.5v-37q0 -17 -12 -29t-29.5 -12t-29.5 12
t-12 29v35.5v41t0.5 38.5t2 43.5t4 39t7 42.5t9.5 38z" />
    <glyph glyph-name="section" unicode="&#xa7;" horiz-adv-x="592" 
d="M199 398q-3 -1 -6 -1q-18 -1 -30.5 -11.5t-25.5 -35.5q-33 -60 -9 -95q20 -29 98 -68q98 -49 126 -68q3 5 7 9q62 62 47 105q-13 37 -88 88l-74 47q-27 17 -45 30zM462 555q-4 -17 -19 -25.5t-31.5 -4.5t-25.5 18.5t-5 31.5q7 27 -15.5 50.5t-69.5 27.5
q-48 4 -82.5 -19.5t-40.5 -73.5q-4 -33 49 -76q23 -18 66 -46l76 -48q98 -67 120 -129q33 -92 -66 -192q-3 -3 -6 -5q39 -51 34 -117q-4 -69 -70 -107q-51 -29 -121 -28t-120 31q-65 39 -65 107q0 17 12 29.5t29.5 12.5t29.5 -12.5t12 -29.5q0 -21 25 -36q31 -18 78 -19
t79 17q27 16 29 41q3 50 -45 88q-10 8 -21 15t-26 15l-24 12.5l-30 15t-28 14.5q-98 48 -130 95q-53 76 3 182q27 50 63 71q-43 52 -36 109q8 61 43 101t79 54.5t91 9.5q32 -2 63.5 -15t57 -35t37 -56t1.5 -74z" />
    <glyph glyph-name="dieresis" unicode="&#xa8;" horiz-adv-x="413" 
d="M54 605l-6 4q-25 18 -29 45q-3 29 20 46q7 6 16 8q5 5 11 7q15 6 30 0.5t22 -19.5q8 -7 13 -17q11 -22 4 -48q-2 -6 -6 -13t-15.5 -16t-26.5 -9q-19 -1 -33 12zM191 678q0 2 1 3q2 18 15 30q13 13 32 13q18 0 40 -13q6 -3 11 -8q17 -9 21 -29q4 -25 2 -41q-1 -7 -4.5 -15
t-13 -17t-23.5 -11q-17 -2 -32 6q-3 1 -6 1q-22 4 -35 22q-11 16 -11 44q0 8 3 15z" />
    <glyph glyph-name="copyright" unicode="&#xa9;" horiz-adv-x="855" 
d="M384 760q28 2 59 -5.5t50 -16.5t45 -23q55 -31 97.5 -73.5t68.5 -90.5t39 -101t13 -106.5t-13 -104.5q-17 -65 -52 -120t-86.5 -96t-122.5 -60t-152 -9q-84 10 -159.5 63.5t-127.5 132.5t-70.5 165t4.5 174q9 30 29.5 59.5t40.5 49t53 44.5t48.5 34.5l46.5 28.5
q43 27 87 42q59 21 102 13zM546 467q2 -17 -9 -30t-28 -15t-30.5 9t-14.5 29q-4 38 -27 49q-24 12 -61 -2q-45 -18 -79 -65.5t-37.5 -115.5t24 -101t63.5 -34q37 -1 66 29.5t29 91.5q0 17 12 29t29.5 12t29.5 -12t12 -29q0 -94 -53 -149.5t-127 -54.5q-75 2 -124 62.5
t-44 160.5q5 92 53 159t115 94q71 28 129 0q65 -32 72 -117zM373 675q-15 -4 -29 3q-15 -2 -35 -9q-35 -13 -71 -34l-58.5 -38t-51.5 -38.5t-46 -46t-26 -48.5q-18 -61 -2.5 -131.5t59 -137t104 -109t123.5 -50.5q125 -14 210 50.5t112 172.5q15 51 10.5 106.5t-23 106
t-57.5 95.5t-94 75q-41 23 -69.5 31t-55.5 2z" />
    <glyph glyph-name="ordfeminine" unicode="&#xaa;" horiz-adv-x="391" 
d="M242 653q-52 37 -85 25q-30 -10 -43 -54q-13 -45 0.5 -92t44.5 -62q22 -10 44 9q24 21 32 72q3 17 7 94v8zM246 460q-6 -8 -14 -15q-43 -37 -91 -15q-51 24 -69 90q-17 60 0 117q19 65 70 83q45 15 101 -15q0 1 1 3l2 4q3 8 12 11q12 4 22 -4q4 -3 7 -8q1 -3 1.5 -7
t-0.5 -12v-9v-11v-37.5v-36.5q0 -7 0.5 -21t0.5 -21q1 -85 2 -109q1 -9 -5 -16t-15.5 -7.5t-16 5.5t-7.5 15q0 8 -1 16z" />
    <glyph glyph-name="guillemotleft" unicode="&#xab;" horiz-adv-x="603" 
d="M256 202q15 -9 20 -25.5t-3 -31.5t-24.5 -20t-31.5 3q-23 13 -68 56q-30 30 -40 33q-17 6 -24.5 21t-2.5 32q3 9 10 16q-1 13 7 24q21 31 67 66t82 52q15 7 31 1t23.5 -21.5t1.5 -31.5t-22 -24q-24 -11 -56.5 -35t-50.5 -44q12 -10 32 -29q37 -36 49 -42zM480 185
q13 -10 14.5 -27.5t-9 -30.5t-28 -15t-30.5 9q-11 9 -35.5 31.5t-36.5 32.5q-40 34 -65 42q-16 6 -23.5 21t-2.5 32q2 5 4 9q0 26 23 38q22 11 69 46q51 37 85 52q16 7 32 0.5t23 -22t0.5 -31.5t-22.5 -23q-26 -12 -69 -43q-28 -21 -38 -28q17 -12 38 -30q12 -10 35.5 -31.5
t35.5 -31.5z" />
    <glyph glyph-name="logicalnot" unicode="&#xac;" horiz-adv-x="696" 
d="M510 332q-81 4 -208 -1q-194 -7 -239 -7q-17 0 -29 12t-12 29t12 29t29 12q43 0 236 8q148 5 242 -1q17 -1 29 -14q13 -5 20.5 -17.5t5.5 -26.5q-10 -73 -10 -232q0 -17 -12 -29t-29 -12t-29 12t-12 29q0 140 6 209z" />
    <glyph glyph-name="registered" unicode="&#xae;" horiz-adv-x="863" 
d="M297 386q21 -1 41 3q43 8 75 27q38 23 39 52q1 10 -14 17q-21 8 -59 7q-35 -1 -67 -9q-29 -7 -36 -15q-2 -2 -5 -8q0 -1 -2 -5q0 -5 1 -13l4 -50q6 -1 13 -3q5 -2 10 -3zM261 719q36 30 80 38t84.5 -1.5t82.5 -32.5q58 -33 110.5 -89t88.5 -123q83 -155 46 -290
q-21 -77 -83.5 -135t-165.5 -89q-62 -19 -122 -21t-110.5 11.5t-95.5 39.5t-79.5 61.5t-59 79.5t-37 91.5t-12 99.5t14.5 102t45 99.5t77 91.5t136 67zM364 677q-8 -16 -24 -21q-20 -7 -48.5 -15l-43.5 -12.5t-33.5 -14t-33.5 -23.5q-40 -37 -66.5 -81.5t-35.5 -88.5t-7 -89
t19 -84.5t42.5 -74.5t63 -60t80.5 -39.5t95.5 -14t107.5 16.5q160 49 193 167q28 103 -39 229q-31 58 -75 105t-92 73q-57 32 -103 27zM227 520q0 9 6 14.5t14 5.5t13.5 -6t5.5 -14v-11q15 7 36 12q37 10 77 11q45 1 73 -11q42 -17 40 -55q-3 -50 -58 -83q-19 -12 -43 -20
q17 -8 31.5 -18t29.5 -25.5t22.5 -24t24 -30.5t21.5 -28t4 -14.5t-7.5 -13.5t-14.5 -4t-13 8q-6 7 -22.5 28.5t-22 28t-19.5 21.5t-23.5 21t-25 13.5t-32.5 11.5q-9 2 -32 6q-13 2 -20 4q-9 0 -16 2q0 -13 -1 -35.5t-1 -35.5t2 -30.5t5 -32.5q3 -8 -1.5 -15t-12.5 -9t-15 2
t-9 12q-6 23 -7.5 49t-0.5 60t1 45v5q-4 5 -4 12q0 5 3 9l-4 53q0 2 -1 4q-6 9 -1 20q-3 34 -2 58z" />
    <glyph glyph-name="macron" unicode="&#xaf;" horiz-adv-x="456" 
d="M320 686q18 -2 28 -15.5t8 -31t-15.5 -27.5t-30.5 -8q-5 0 -34 4t-37 5t-34 4t-37 3.5t-32.5 1t-34.5 -0.5t-29 -3.5t-29 -6.5q-16 -6 -31.5 2t-21 24t2.5 31.5t24 20.5q19 7 40.5 10.5t47.5 4t44.5 0.5t49 -3t43 -4.5t43.5 -5.5t35 -5z" />
    <glyph glyph-name="degree" unicode="&#xb0;" horiz-adv-x="456" 
d="M166 711q55 20 105 -7q52 -28 75 -90q10 -29 10.5 -59.5t-9.5 -60t-36 -54t-65 -36.5q-93 -30 -157 11q-58 37 -68 110q-6 42 7 83t49 71.5t89 31.5zM183 628q-16 -8 -33 -2q-25 -8 -38 -32.5t-9 -56.5q5 -36 31 -52q31 -20 87 -2q36 11 48 41t-1 61q-12 33 -36 46
q-23 12 -49 -3z" />
    <glyph glyph-name="plusminus" unicode="&#xb1;" horiz-adv-x="704" 
d="M550 356q17 0 29.5 -12t12.5 -29t-12.5 -29t-29.5 -12q-80 0 -213 -6q3 -85 3 -128q0 -17 -12 -29t-29.5 -12t-29.5 12t-12 29q0 42 -2 124q-125 -6 -203 -6q-18 0 -30 12.5t-12 29.5t12 29.5t30 12.5q77 0 200 5q-1 94 3 159q1 17 14 28.5t30.5 10.5t28.5 -14t10 -30
q-4 -63 -3 -150q135 5 215 5zM561 83q17 1 30 -10t14 -28.5t-10.5 -30.5t-28.5 -14q-85 -5 -268 -8q-99 -1 -158 1q-35 1 -55 3q-13 2 -21 4q-7 2 -12 4q-13 6 -20 16q-9 15 -6 31.5t18 26.5q21 14 44 1h2h4q17 -2 49 -3q57 -2 154 -1q181 3 264 8z" />
    <glyph glyph-name="uni00B2" unicode="&#xb2;" horiz-adv-x="416" 
d="M60 544q-3 -10 -12 -14.5t-18.5 -1.5t-14 12t-1.5 19q11 35 12 39q8 16 32 37q18 15 46 27.5t55 14.5q35 4 60 -9q30 -17 39 -54q8 -33 -12 -76q-15 -32 -46 -71q-22 -27 -56 -62l-22.5 -23l-21.5 -22q-5 -5 -16 -17q24 1 67 2q131 3 142 3q10 0 17 -7.5t6.5 -18t-8 -17
t-17.5 -6.5t-139 -3q-57 -2 -84 -2h-28h-9t-5 1q-2 0 -4 1q-8 2 -13 9q-5 8 -4 18l2 6l2 4t2 3q2 2 5 6q5 5 14 15q5 6 17 18.5l17 17.5q6 7 22 23t22 23q33 34 53 59q28 35 41 61q13 27 9 43t-16 22q-11 6 -31 4q-43 -4 -74 -31q-16 -13 -20 -21z" />
    <glyph glyph-name="uni00B3" unicode="&#xb3;" horiz-adv-x="390" 
d="M70 555q-4 -8 -12.5 -10.5t-16.5 1.5t-10.5 12.5t1.5 16.5q15 27 17 30q9 12 29 26q16 11 42 20t50 10q32 1 52 -13q26 -18 25 -55q-1 -30 -28 -61q-2 -1 -3 -2q49 -17 67 -65t-3 -94q-18 -41 -61 -63t-91 -14.5t-78 43.5q-7 8 -11.5 16t-6.5 16.5t-2.5 13t-1 15.5
t-0.5 14q0 9 5.5 15.5t14.5 7t16 -5.5t7 -15q1 -5 1 -14t0.5 -11.5l1.5 -7.5t3.5 -8.5t6.5 -8.5q19 -24 51.5 -28.5t63 10t41.5 42.5q15 35 0.5 66t-48.5 38q-2 0 -4.5 0.5t-7.5 0.5h-9q-1 -1 -3 -2q-7 -6 -10 -8q-8 -6 -15 -7q-12 -3 -21 5q-8 7 -8 19q0 21 22 30q9 4 20 5
q19 13 31 26q16 19 17 33q0 14 -7 19q-8 5 -25 5q-40 -2 -69 -22q-15 -10 -19 -17q-1 0 -14 -24z" />
    <glyph glyph-name="acute" unicode="&#xb4;" horiz-adv-x="336" 
d="M160 757q9 15 26 18.5t31.5 -5.5t18 -26t-5.5 -31q-9 -15 -37.5 -55t-40.5 -63q-8 -16 -24 -21t-31.5 2.5t-21 24t2.5 31.5q13 26 48 76z" />
    <glyph glyph-name="uni00B5" unicode="&#xb5;" horiz-adv-x="651" 
d="M469 525q2 18 15.5 28t31 8t27.5 -15.5t8 -30.5q-12 -89 -53 -280q-22 -101 -41 -168q-23 -85 -41 -112q-9 -14 -26 -17.5t-31.5 6t-17.5 26.5t6 31q10 16 30 87q-65 -54 -129 -77q-85 -29 -141 8q-12 8 -22 19q-25 -132 -25 -238q0 -17 -12 -29.5t-29.5 -12.5
t-29.5 12.5t-12 29.5q0 69 8.5 142t27.5 158t32.5 138.5t42 152.5l37.5 132q4 16 19 24.5t32 4t25.5 -19.5t3.5 -31l-38.5 -137.5t-45.5 -167.5q5 -10 5 -21q0 -70 27 -87q21 -14 67 2q51 17 104 61.5t77 85.5q5 10 16 16q41 187 52 272z" />
    <glyph glyph-name="paragraph" unicode="&#xb6;" horiz-adv-x="634" 
d="M507 731q16 -6 23.5 -21.5t2 -31.5t-21 -23.5t-31.5 -2.5q-1 -133 -11.5 -410.5t-10.5 -421.5q0 -17 -12 -29.5t-29.5 -12.5t-29.5 12.5t-12 29.5q0 144 11 429t11 427q-42 8 -81 8v-2q-6 -81 -9.5 -163t-5 -182t-2 -156.5t0 -181.5t0.5 -162q0 -18 -12 -30t-29.5 -12
t-29.5 12t-12 30q0 11 -0.5 188.5t0.5 190.5q-117 16 -175 111q-31 49 -37.5 109.5t10.5 116.5q18 61 59 108.5t101.5 76.5t147 28.5t184.5 -35.5z" />
    <glyph glyph-name="periodcentered" unicode="&#xb7;" horiz-adv-x="300" 
d="M189 379q16 -26 9.5 -52t-30.5 -39q-9 -5 -20 -7q-17 -8 -35 -4q-32 6 -43 42l-2 4q-16 32 1 59q13 21 41 27q36 8 64 -13q9 -7 15 -17z" />
    <glyph glyph-name="cedilla" unicode="&#xb8;" horiz-adv-x="379" 
d="M127 -114q-12 -3 -23 3t-14.5 18t2.5 22.5t18 14.5q1 0 3 1q7 13 23 30q6 8 32 34q7 7 17 7t17 -7t7 -17t-7 -17l-6 -6l-8 -8l-7 -7q37 -2 63 -20q23 -16 31.5 -41t1.5 -51q-6 -25 -25 -44t-47 -27q-61 -16 -133 32q-11 7 -13.5 19.5t4.5 22.5t19.5 12.5t22.5 -4.5
q50 -33 84 -24q24 7 30 28q5 18 -10 28q-25 18 -82 1z" />
    <glyph glyph-name="uni00B9" unicode="&#xb9;" horiz-adv-x="336" 
d="M154 707q4 17 18.5 26.5t31.5 5.5t26 -18.5t6 -30.5q-18 -80 -21 -209q-4 -143 16 -203q5 -16 -2.5 -31.5t-24 -21t-31.5 2.5t-21 24q-24 74 -20 231q4 137 22 224z" />
    <glyph glyph-name="ordmasculine" unicode="&#xba;" horiz-adv-x="467" 
d="M128 763q1 0 3 1q84 19 146 -26t82 -117q11 -32 7.5 -68.5t-16.5 -68t-44 -56t-76 -34.5q-50 -9 -90.5 0t-72 34t-51 56.5t-28.5 67.5q-19 79 15 139q39 68 125 72zM154 684q-8 -4 -17 -4q-44 0 -62 -30q-18 -32 -6 -79q12 -50 50.5 -78.5t93.5 -16.5q45 9 62 43.5
t4 78.5q-12 45 -46 69.5t-79 16.5z" />
    <glyph glyph-name="guillemotright" unicode="&#xbb;" horiz-adv-x="606" 
d="M59 380q-13 12 -14 29t10.5 30t28.5 14t30 -10q91 -80 113 -104q20 -22 26 -39q10 -29 -6 -54q-8 -13 -28 -27q-2 -2 -11.5 -9l-16.5 -12q-39 -29 -66 -71q-10 -14 -27 -17.5t-31 6t-17.5 26.5t5.5 31q36 53 86 91q5 4 25 19h-1q-18 21 -106 97zM272 384q-14 9 -17.5 26
t6 31.5t26.5 17.5t31 -6q63 -42 143 -110l1 -1q1 -1 2 -1l11 -8l13 -10t8 -8q4 -4 6 -9q7 -15 3 -31q-4 -14 -18 -29l-21 -20q-16 -14 -53 -42q-76 -58 -86 -72q-11 -14 -28 -16.5t-30.5 8t-16 27.5t7.5 31q18 23 102 88l42 32q-74 63 -132 102z" />
    <glyph glyph-name="onequarter" unicode="&#xbc;" horiz-adv-x="906" 
d="M200 707q6 17 21 25t31.5 2.5t24.5 -20.5t3 -31q-64 -203 -21 -373q4 -17 -5 -31.5t-25.5 -18.5t-31.5 4.5t-19 25.5q-48 192 22 417zM602 702q10 14 27 17t31 -6.5t17.5 -26.5t-6.5 -31q-215 -314 -432 -749q-8 -15 -24.5 -20.5t-31.5 2.5t-20.5 24t2.5 32
q219 439 437 758zM664 402q0 17 12 29t29 12t29 -12t12 -29q0 -75 10 -224q0 -1 1 -2q17 3 31 -6.5t17.5 -26.5t-6 -31t-26.5 -18q-5 -1 -11 -2q4 -83 4 -142q0 -17 -12 -29t-29 -12t-29 12t-12 29q0 59 -5 138q-35 1 -77 8q-55 8 -83 32q-31 27 -32 72q0 14 4.5 34.5
t8.5 34t13.5 40l12.5 34.5q5 16 20.5 24t31.5 2.5t24 -21t2 -31.5q-5 -16 -13 -39.5l-11.5 -33.5t-6.5 -22.5t-3 -20.5q0 -7 3 -10q10 -9 42 -13q32 -5 59 -7v1q-10 153 -10 230z" />
    <glyph glyph-name="onehalf" unicode="&#xbd;" horiz-adv-x="864" 
d="M163 706q6 16 21.5 23.5t31.5 1t23.5 -22t1.5 -31.5q-32 -84 -38 -182t20 -180q5 -17 -2.5 -32t-24 -20.5t-32 2t-20.5 24.5q-30 100 -23.5 211t42.5 206zM530 717q9 15 26 18.5t31.5 -5.5t18 -26t-5.5 -31q-38 -60 -84 -154l-33 -68.5l-46 -94.5q-20 -39 -67.5 -124
t-78 -148t-50.5 -124q-5 -16 -20.5 -23.5t-32 -2.5t-24 20.5t-2.5 31.5q22 65 54.5 132.5t81 155t65.5 120.5q17 32 46.5 93.5l32.5 67.5q47 98 88 162zM543 303q-11 -14 -28 -16t-30.5 8.5t-15.5 27.5t8 31q24 30 70.5 55t90.5 31q61 8 96 -22q41 -37 27 -111
q-15 -75 -98 -166q-31 -34 -73 -73q74 2 128 2q18 0 30 -12t12 -29.5t-12 -29.5t-30 -12q-60 0 -165 -3q-40 -2 -54 -2q-11 0 -17 1q-6 0 -10 1q-5 0 -9 2q-17 7 -23 24q-8 19 2 36q2 4 5 7l7 7t11 9q3 3 6 5.5t5 3.5l2 2q83 72 123 116q68 75 78 127q5 21 -1 33q-7 5 -28 2
q-30 -4 -62 -21.5t-45 -33.5z" />
    <glyph glyph-name="threequarters" unicode="&#xbe;" horiz-adv-x="869" 
d="M93 572q-7 -16 -23 -22.5t-31.5 0.5t-22 23t0.5 32q45 104 121 123q36 9 69.5 -3t56.5 -38q23 -25 33 -58.5t3 -67.5q-3 -14 -8 -27q10 -4 20 -9q30 -16 45 -44.5t13 -61.5q-4 -67 -68 -108.5t-162 -28.5q-38 5 -69 20q-46 22 -61 61q-7 16 0 31.5t23 22t31.5 0
t22.5 -22.5q3 -9 20 -17q19 -9 43 -13q38 -5 66.5 0.5t42.5 17t21 22.5t7 20q1 19 -14 28q-27 14 -81 -7q-7 -3 -15 -3q-28 0 -39 26q-3 7 -3 15q0 28 26 39q51 20 58 55q6 30 -16 54q-21 22 -44 16q-37 -9 -66 -75zM659 714q12 12 29.5 12.5t29.5 -12t12 -29.5t-12 -29
q-135 -135 -267.5 -334.5t-170.5 -351.5q-4 -17 -18.5 -25.5t-31.5 -4.5t-25.5 18.5t-4.5 31.5q28 113 108 255.5t171.5 261.5t179.5 207zM687 398q2 18 15.5 28.5t31 8t28 -16t8.5 -30.5q-9 -66 -10 -153q10 -11 10 -27t-10 -29q0 -26 1 -86t1 -93q0 -17 -12.5 -29
t-29.5 -12t-29.5 12t-12.5 29q0 28 -0.5 83t-0.5 63q-2 -1 -3 -1q-76 -20 -116 -13q-28 4 -45.5 21t-21.5 43q-5 31 11 83q4 14 15 45.5l15 43.5q6 16 21 24t31.5 2.5t24 -21t2.5 -31.5l-14.5 -42.5l-15.5 -45.5q-8 -28 -9 -41q24 -3 81 12q4 1 18 4q5 1 6 1q1 96 10 168z
" />
    <glyph glyph-name="questiondown" unicode="&#xbf;" horiz-adv-x="623" 
d="M443 21q8 16 24.5 22t32.5 -1.5t21.5 -24t-1.5 -32.5q-27 -57 -30 -62q-17 -27 -57 -57q-37 -28 -93.5 -39.5t-110.5 -3.5q-38 5 -70.5 19.5t-59 45.5t-31.5 74q-11 100 63 167q14 13 57 46q32 24 48 41q17 19 22 30q1 5 2.5 10t4 15.5l5.5 22.5q4 17 19.5 25.5t32.5 4
t25.5 -19.5t4.5 -32q-14 -54 -15 -56q-10 -27 -38 -57q-21 -23 -60 -52q-40 -30 -51 -40q-21 -19 -30 -40.5t-5 -55.5q2 -25 24.5 -41.5t63.5 -22.5q40 -6 80 2t61 24q27 21 36 35q1 1 25 53zM273.5 475.5q0.5 17.5 14 29.5t31 11t29 -14t11 -30.5t-13.5 -29t-31 -11
t-29.5 13.5t-11 30.5z" />
    <glyph glyph-name="Agrave" unicode="&#xc0;" 
d="M202 288q91 13 216 14q-24 124 -45 187q-18 52 -32 85q-2 3 -3 7l-29 -54q-24 -43 -34 -65q-24 -52 -73 -174zM71 3q-9 -15 -25.5 -19t-31.5 4.5t-19 25t4 31.5q38 64 74 146q-13 9 -17 24q-4 16 4.5 31t25.5 19q10 3 20 5q73 181 93 226q12 25 38 72l35 65v1q0 5 2 18
q3 17 10 28q15 24 44 24q22 0 40 -17q10 -9 20 -24q14 -21 29 -56.5t34 -91.5q8 -23 15 -47.5t13.5 -53.5t10 -46.5l10 -52.5t9.5 -47q29 -146 68 -226q8 -15 2.5 -31.5t-21 -24t-32 -2t-23.5 21.5q-41 83 -69 214q-161 -2 -268 -22q-49 -117 -95 -195zM375 806
q8 -15 3 -31.5t-20 -24.5t-31.5 -3t-24.5 20q-9 17 -20 29t-32 30.5t-34 32.5q-12 12 -12 29.5t12 29.5t29 12t29 -12q5 -5 30 -27t42 -41.5t29 -43.5z" />
    <glyph glyph-name="Aacute" unicode="&#xc1;" 
d="M202 288q91 13 216 14q-24 124 -45 187q-18 52 -32 85q-2 3 -3 7l-29 -54q-24 -43 -34 -65q-24 -52 -73 -174zM71 3q-9 -15 -25.5 -19t-31.5 4.5t-19 25t4 31.5q38 64 74 146q-13 9 -17 24q-4 16 4.5 31t25.5 19q10 3 20 5q73 181 93 226q12 25 38 72l35 65v1q0 5 2 18
q3 17 10 28q15 24 44 24q22 0 40 -17q10 -9 20 -24q14 -21 29 -56.5t34 -91.5q8 -23 15 -47.5t13.5 -53.5t10 -46.5l10 -52.5t9.5 -47q29 -146 68 -226q8 -15 2.5 -31.5t-21 -24t-32 -2t-23.5 21.5q-41 83 -69 214q-161 -2 -268 -22q-49 -117 -95 -195zM353 890q13 11 30 10
t28.5 -14t10 -30.5t-14.5 -28.5q-52 -45 -63 -78q-5 -17 -20.5 -24.5t-31.5 -2t-24 20.5t-2 32q18 54 87 115z" />
    <glyph glyph-name="Acircumflex" unicode="&#xc2;" 
d="M202 288q91 13 216 14q-24 124 -45 187q-18 52 -32 85q-2 3 -3 7l-29 -54q-24 -43 -34 -65q-24 -52 -73 -174zM71 3q-9 -15 -25.5 -19t-31.5 4.5t-19 25t4 31.5q38 64 74 146q-13 9 -17 24q-4 16 4.5 31t25.5 19q10 3 20 5q73 181 93 226q12 25 38 72l35 65v1q0 5 2 18
q3 17 10 28q15 24 44 24q22 0 40 -17q10 -9 20 -24q14 -21 29 -56.5t34 -91.5q8 -23 15 -47.5t13.5 -53.5t10 -46.5l10 -52.5t9.5 -47q29 -146 68 -226q8 -15 2.5 -31.5t-21 -24t-32 -2t-23.5 21.5q-41 83 -69 214q-161 -2 -268 -22q-49 -117 -95 -195zM458 783q9 -14 6 -31
t-17.5 -26.5t-31.5 -6t-26 17.5q-32 48 -49 63q-26 -25 -37 -41q-10 -15 -26.5 -18t-31 6.5t-18 26t6.5 31.5q6 9 13.5 18t18 19.5l15 15t17.5 16.5l14 13q12 12 29.5 11.5t28.5 -13.5q5 -5 7 -10h1q34 -23 80 -92z" />
    <glyph glyph-name="Atilde" unicode="&#xc3;" 
d="M202 288q91 13 216 14q-24 124 -45 187q-18 52 -32 85q-2 3 -3 7l-29 -54q-24 -43 -34 -65q-24 -52 -73 -174zM71 3q-9 -15 -25.5 -19t-31.5 4.5t-19 25t4 31.5q38 64 74 146q-13 9 -17 24q-4 16 4.5 31t25.5 19q10 3 20 5q73 181 93 226q12 25 38 72l35 65v1q0 5 2 18
q3 17 10 28q15 24 44 24q22 0 40 -17q10 -9 20 -24q14 -21 29 -56.5t34 -91.5q8 -23 15 -47.5t13.5 -53.5t10 -46.5l10 -52.5t9.5 -47q29 -146 68 -226q8 -15 2.5 -31.5t-21 -24t-32 -2t-23.5 21.5q-41 83 -69 214q-161 -2 -268 -22q-49 -117 -95 -195zM243 752
q-1 -17 -14 -28.5t-30 -10t-28.5 14.5t-10.5 30q4 53 25 82q24 34 66 36q38 3 118 -35q58 -28 72 -27q6 11 6 41q0 17 12 29t29.5 12t29.5 -12t12 -29q0 -53 -17 -83q-21 -37 -63 -41q-19 -1 -44 6t-36 12l-37 17q-60 29 -77 28q-2 0 -3 -2q-8 -10 -10 -40z" />
    <glyph glyph-name="Adieresis" unicode="&#xc4;" 
d="M202 288q91 13 216 14q-24 124 -45 187q-18 52 -32 85q-2 3 -3 7l-29 -54q-24 -43 -34 -65q-24 -52 -73 -174zM306 823q0 -11 -4 -21q-7 -18 -22.5 -25t-30.5 -4q-18 3 -32 16q-16 16 -18 36q-4 34 19 52q21 17 49 9q17 -5 29 -19q11 -12 12 -27q1 -9 -2 -17zM384 869
q7 13 23 19q19 7 42 -4q19 -10 26 -27q7 -16 1 -33q1 -5 1 -11q-2 -21 -20 -32q-17 -10 -36 -4q-8 3 -15 9v1q-18 2 -29 14q-10 10 -11.5 23.5t1.5 21t7 13t10 10.5zM71 3q-9 -15 -25.5 -19t-31.5 4.5t-19 25t4 31.5q38 64 74 146q-13 9 -17 24q-4 16 4.5 31t25.5 19
q10 3 20 5q73 181 93 226q12 25 38 72l35 65v1q0 5 2 18q3 17 10 28q15 24 44 24q22 0 40 -17q10 -9 20 -24q14 -21 29 -56.5t34 -91.5q8 -23 15 -47.5t13.5 -53.5t10 -46.5l10 -52.5t9.5 -47q29 -146 68 -226q8 -15 2.5 -31.5t-21 -24t-32 -2t-23.5 21.5q-41 83 -69 214
q-161 -2 -268 -22q-49 -117 -95 -195z" />
    <glyph glyph-name="Aring" unicode="&#xc5;" 
d="M202 288q91 13 216 14q-24 124 -45 187q-18 52 -32 85q-2 3 -3 7l-29 -54q-24 -43 -34 -65q-24 -52 -73 -174zM71 3q-9 -15 -25.5 -19t-31.5 4.5t-19 25t4 31.5q38 64 74 146q-13 9 -17 24q-4 16 4.5 31t25.5 19q10 3 20 5q73 181 93 226q12 25 38 72l35 65v1q0 5 2 18
t7 22q-49 24 -67 76q-16 44 2.5 87t69.5 63q12 5 23 2q2 1 4 1q63 17 109 -12t54 -82q8 -45 -16.5 -85.5t-74.5 -55.5q1 -2 3 -5q14 -21 29 -56.5t34 -91.5q8 -23 15 -47.5t13.5 -53.5t10 -46.5l10 -52.5t9.5 -47q29 -146 68 -226q8 -15 2.5 -31.5t-21 -24t-32 -2
t-23.5 21.5q-41 83 -69 214q-161 -2 -268 -22q-49 -117 -95 -195zM334 823q-9 -2 -18 0q-35 -15 -24 -46q6 -16 20.5 -25.5t34.5 -6.5q28 3 39 18t8 33q-2 16 -16.5 25.5t-43.5 1.5z" />
    <glyph glyph-name="AE" unicode="&#xc6;" horiz-adv-x="1086" 
d="M473 303v21q-15 12 -15 31q0 18 14 30q-3 161 -3 260h-13q-35 1 -56 -1h-8q-1 -2 -3 -5l-28 -52l-88 -163l-61 -116q181 1 261 -5zM951 83q17 -3 27.5 -17t7.5 -31t-16.5 -27t-30.5 -7q-75 11 -199 1q-163 -14 -193 -15q-12 -12 -29 -12t-29 12t-12 30q0 85 -2 203
q-36 3 -80 4.5t-70.5 1.5t-82.5 -0.5t-74 -0.5q-28 -54 -33 -66q-12 -29 -26 -77q-19 -69 -25 -85q-5 -16 -20.5 -24t-31.5 -2.5t-24 21t-2 31.5l23 81q15 54 30 87q7 18 50 101l91 171l88 163q18 35 29 54l9 15q2 4 3 5l2 4q1 1 2 3q5 6 13 10q16 8 49 10q24 2 62 1
q60 -1 164 -8l110 -8t108.5 -7.5t58.5 -2.5t30 -12.5t12 -29.5t-12 -29.5t-30 -12.5t-59.5 3l-111.5 8l-111 8q-36 3 -64 4q0 -96 2 -244q22 0 107.5 2t139 2t106.5 -3q17 -1 28.5 -13.5t11 -30t-13.5 -29t-30 -10.5q-95 2 -116 3t-115.5 -1.5t-115.5 -2.5q3 -157 4 -244
q17 1 173 14q134 12 218 -1z" />
    <glyph glyph-name="Ccedilla" unicode="&#xc7;" horiz-adv-x="724" 
d="M303 -67q-12 -4 -22.5 2t-14.5 18q-5 19 10 32q8 16 26 37q2 1 3 3l-12 2q-110 22 -196 114t-105 221q-13 95 23 195t106 170q49 50 107 75t128.5 18t136.5 -54q21 -14 40 -36t29 -37.5t25.5 -42t20.5 -33.5q9 -15 5.5 -31.5t-18 -26t-31 -5.5t-26 18.5t-23.5 38.5
t-22 36t-20.5 26.5t-27.5 25.5q-47 33 -95.5 38.5t-90.5 -12.5t-80 -56q-56 -57 -85.5 -139t-19.5 -156q15 -104 83.5 -176.5t151.5 -89.5q82 -16 143 29q70 53 91 178q2 17 16 27t31 7t27 -16.5t7 -30.5q-26 -158 -123 -231q-58 -44 -132 -49v-1l-9 -8q-8 -8 -12 -13
q43 1 72 -19q24 -16 32 -41.5t2 -50.5q-7 -25 -26 -44.5t-47 -26.5q-60 -16 -133 32q-10 7 -12.5 19t4.5 22.5t19 13t23 -4.5q49 -33 84 -24q24 6 30 28q4 18 -10 28q-25 17 -83 1z" />
    <glyph glyph-name="Egrave" unicode="&#xc8;" horiz-adv-x="655" 
d="M502 709q17 0 29 -12.5t11.5 -29.5t-13 -29t-29.5 -11q-26 0 -204 -4q-73 -1 -124 -2q-26 -1 -41 -2h-5l-4 -5q-1 -5 2 -19q9 -34 10 -44q2 -17 3 -78q1 -33 1 -74q230 7 322 7q17 0 29 -12t12 -29t-12 -29t-29 -12q-90 0 -323 -7q-2 -101 0 -157q1 -25 5 -46q1 -7 2 -12
h37q49 2 124 6q173 8 204 12q17 2 30.5 -8.5t15.5 -27.5t-8.5 -30.5t-27.5 -15.5q-33 -4 -210 -13q-76 -4 -126 -5q-27 -1 -43 -1h-15q-4 0 -6 1q-8 0 -14 3q-23 10 -35 40q-6 15 -10 38q-4 26 -5 55q-3 48 -1 158t1 157q-2 58 -3 72q0 4 -8 31q-8 32 -3.5 55.5t20.5 41.5
t36 27l13 3h2.5t4.5 1h12q14 1 40 1q52 1 125 3q180 4 208 3zM319 771q5 -12 0.5 -23.5t-15.5 -16.5t-23 -0.5t-17 15.5q-8 17 -18.5 34.5t-28 41.5t-25.5 36q-7 11 -4.5 23t12.5 19t22.5 4.5t19.5 -12.5q5 -8 23.5 -34t31.5 -46.5t22 -40.5z" />
    <glyph glyph-name="Eacute" unicode="&#xc9;" horiz-adv-x="655" 
d="M502 709q17 0 29 -12.5t11.5 -29.5t-13 -29t-29.5 -11q-26 0 -204 -4q-73 -1 -124 -2q-26 -1 -41 -2h-5l-4 -5q-1 -5 2 -19q9 -34 10 -44q2 -17 3 -78q1 -33 1 -74q230 7 322 7q17 0 29 -12t12 -29t-12 -29t-29 -12q-90 0 -323 -7q-2 -101 0 -157q1 -25 5 -46q1 -7 2 -12
h37q49 2 124 6q173 8 204 12q17 2 30.5 -8.5t15.5 -27.5t-8.5 -30.5t-27.5 -15.5q-33 -4 -210 -13q-76 -4 -126 -5q-27 -1 -43 -1h-15q-4 0 -6 1q-8 0 -14 3q-23 10 -35 40q-6 15 -10 38q-4 26 -5 55q-3 48 -1 158t1 157q-2 58 -3 72q0 4 -8 31q-8 32 -3.5 55.5t20.5 41.5
t36 27l13 3h2.5t4.5 1h12q14 1 40 1q52 1 125 3q180 4 208 3zM361 884q10 7 22.5 5.5t20 -11t6 -22t-10.5 -20.5q-3 -2 -13.5 -10t-14 -11l-11.5 -10t-11.5 -10.5t-9 -9.5t-8 -11t-4.5 -10q-4 -12 -15 -17.5t-23 -1.5t-17.5 15t-1.5 23q4 11 11 22.5t14 20t18.5 19t17 15
l17.5 14t13 10.5z" />
    <glyph glyph-name="Ecircumflex" unicode="&#xca;" horiz-adv-x="655" 
d="M502 709q17 0 29 -12.5t11.5 -29.5t-13 -29t-29.5 -11q-26 0 -204 -4q-73 -1 -124 -2q-26 -1 -41 -2h-5l-4 -5q-1 -5 2 -19q9 -34 10 -44q2 -17 3 -78q1 -33 1 -74q230 7 322 7q17 0 29 -12t12 -29t-12 -29t-29 -12q-90 0 -323 -7q-2 -101 0 -157q1 -25 5 -46q1 -7 2 -12
h37q49 2 124 6q173 8 204 12q17 2 30.5 -8.5t15.5 -27.5t-8.5 -30.5t-27.5 -15.5q-33 -4 -210 -13q-76 -4 -126 -5q-27 -1 -43 -1h-15q-4 0 -6 1q-8 0 -14 3q-23 10 -35 40q-6 15 -10 38q-4 26 -5 55q-3 48 -1 158t1 157q-2 58 -3 72q0 4 -8 31q-8 32 -3.5 55.5t20.5 41.5
t36 27l13 3h2.5t4.5 1h12q14 1 40 1q52 1 125 3q180 4 208 3zM382 793q8 -10 6 -22t-11.5 -19.5t-22 -6t-19.5 11.5q-38 49 -57 61v1q-20 -9 -48 -53q-8 -14 -25 -14q-9 0 -16 4q-14 9 -14 26q0 5 2 10v4q3 13 14 19q35 52 78 64q15 4 27 -6q8 0 16 -5q26 -18 70 -75z" />
    <glyph glyph-name="Edieresis" unicode="&#xcb;" horiz-adv-x="655" 
d="M147 834q-2 13 4 26q11 26 41 24q16 -1 31 -12q6 -5 10 -11q5 -4 8 -9q5 -11 2 -23q-1 -19 -18 -32q-20 -17 -44 -9q-19 6 -28 25q-5 10 -6 21zM414 832q0 -8 -2 -15q-1 -12 -9 -22q-14 -15 -35 -15.5t-35 15.5q-10 8 -15 18q-10 20 1 38q10 15 33 21q8 4 17 4q7 0 13 -2
q9 -2 16 -6q10 -5 14 -15.5t2 -20.5zM502 709q17 0 29 -12.5t11.5 -29.5t-13 -29t-29.5 -11q-26 0 -204 -4q-73 -1 -124 -2q-26 -1 -41 -2h-5l-4 -5q-1 -5 2 -19q9 -34 10 -44q2 -17 3 -78q1 -33 1 -74q230 7 322 7q17 0 29 -12t12 -29t-12 -29t-29 -12q-90 0 -323 -7
q-2 -101 0 -157q1 -25 5 -46q1 -7 2 -12h37q49 2 124 6q173 8 204 12q17 2 30.5 -8.5t15.5 -27.5t-8.5 -30.5t-27.5 -15.5q-33 -4 -210 -13q-76 -4 -126 -5q-27 -1 -43 -1h-15q-4 0 -6 1q-8 0 -14 3q-23 10 -35 40q-6 15 -10 38q-4 26 -5 55q-3 48 -1 158t1 157q-2 58 -3 72
q0 4 -8 31q-8 32 -3.5 55.5t20.5 41.5t36 27l13 3h2.5t4.5 1h12q14 1 40 1q52 1 125 3q180 4 208 3z" />
    <glyph glyph-name="Igrave" unicode="&#xcc;" horiz-adv-x="298" 
d="M138 672q0 12 9 21t21.5 9t21 -9t8.5 -21q0 -81 -10 -225q-11 -159 -13 -223q-1 -40 5 -115q7 -83 7 -121q0 -12 -9 -21t-21.5 -9t-21 9t-8.5 21q0 35 -7 116q-6 78 -5 122q2 65 13 225q10 142 10 221zM194 770q7 -11 3.5 -23t-14.5 -18t-23 -3t-18 14q-27 47 -75 95
q-9 9 -9 21.5t9 21.5t21.5 9t21.5 -9q53 -54 84 -108z" />
    <glyph glyph-name="Iacute" unicode="&#xcd;" horiz-adv-x="368" 
d="M131 696q2 12 12.5 19t22.5 4.5t19 -13t4 -22.5q-20 -95 -23.5 -198.5t3 -248.5t6.5 -207q0 -12 -9 -21t-21 -9t-21 9t-9 21q0 55 -6.5 202.5t-2.5 256.5t25 207zM223 906q11 6 23 3t18 -14t3 -23t-13 -18q-41 -24 -88 -87q-8 -10 -20 -11.5t-22 5.5t-12 19.5t6 22.5
q54 73 105 103z" />
    <glyph glyph-name="Icircumflex" unicode="&#xce;" horiz-adv-x="345" 
d="M138 709q0 12 8.5 21t21 9.5t21.5 -7.5t9 -21q2 -31 7 -128t6 -148t1.5 -132.5t-6 -149.5t-18.5 -131q-3 -12 -13 -19t-22.5 -4.5t-19.5 13t-4 22.5q12 60 18 125t5.5 144.5t-1.5 129t-6 146.5t-7 130zM106 898q12 7 25 2q2 3 5 5q11 7 23 4.5t19 -12.5q45 -65 64 -104
q5 -11 1.5 -22.5t-15 -17t-23 -2t-17.5 15.5q-16 33 -49 81q-2 -1 -5 -3q-28 -15 -57 -73q-6 -12 -17.5 -15.5t-23 2t-15 17t1.5 22.5q11 22 19.5 36.5t26 33.5t37.5 30z" />
    <glyph glyph-name="Idieresis" unicode="&#xcf;" horiz-adv-x="372" 
d="M28 872l4 4q17 19 41 17q25 -4 39 -31q15 -31 3 -56q-16 -31 -54 -28q-21 2 -31.5 17t-13.5 30q-4 29 12 47zM168 826q-4 12 -3 25q3 27 27 36q15 6 33 0q32 -11 43 -35q8 -21 3 -40q-3 -8 -8 -14q-8 -13 -23 -17q-5 -1 -10 -1q-42 -6 -57 25q-5 10 -5 21zM130 707
q0 13 8.5 22t20.5 9.5t21.5 -8t9.5 -21.5q1 -34 9 -158t11 -198q11 -266 -17 -349q-3 -12 -14.5 -17.5t-23 -1.5t-17 15t-1.5 23q24 72 13 328q-3 73 -11 197.5t-9 158.5z" />
    <glyph glyph-name="Eth" unicode="&#xd0;" horiz-adv-x="758" 
d="M51 670q-2 17 8.5 30.5t27.5 15.5t30.5 -8.5t15.5 -27.5q1 -9 2 -19q64 35 136 43q60 7 118.5 -8t104.5 -47t83.5 -77t56.5 -98.5t24 -112.5t-14 -119q-20 -65 -63.5 -116.5t-99.5 -79.5t-122 -36.5t-131 11.5q-22 7 -51 25q1 -11 1 -22q1 -17 -10.5 -29.5t-28.5 -13.5
t-29.5 10.5t-13.5 28.5q-3 59 -4 200q0 88 -2 138h-70q-12 0 -21 9t-9 21.5t9 21t21 8.5h67q-4 45 -16 122q-1 7 -3 18q-4 3 -6 7q-14 20 -2 43q-6 35 -9 62zM385 410q12 0 21 -9t9 -21t-9 -21t-21 -9q-57 0 -212 5q2 -51 2 -135v-31v-40q56 -42 77 -48q100 -30 191.5 18
t120.5 147q15 56 10 110t-32.5 101t-65.5 81.5t-90 52t-107 11.5q-65 -7 -130 -49q2 -12 3 -20q13 -81 17 -132q0 -3 1 -6q159 -5 215 -5z" />
    <glyph glyph-name="Ntilde" unicode="&#xd1;" horiz-adv-x="687" 
d="M123 45q0 -17 -12.5 -29t-29.5 -11.5t-29 13t-11 29.5q1 26 5.5 157t4.5 156.5v156.5q-1 18 -1.5 28.5t-1.5 23.5t-2 17.5t-4 25t-5 32.5q0 1 -1 3t-3 7.5l-5 13.5q-6 17 -5 30q1 20 15.5 32.5t34.5 10.5q16 -1 33 -14q8 -7 19 -18q15 -17 37 -45l17 -22t14.5 -20.5
t10.5 -15t5 -7.5l134 -173q83 -107 131 -182q1 -2 22 -37v39v35v19q0 23 1 66.5t2 53.5q0 15 2.5 104t3.5 137q0 17 12.5 29t29.5 11.5t29 -13t11 -29.5q0 -47 -2.5 -136.5t-3.5 -104.5q0 -10 -1 -53t-2 -67q0 -4 0.5 -46.5t0.5 -72.5q-1 -45 -3 -72q-1 -17 -3 -27
q-1 -8 -3 -14q-7 -18 -23 -26q-17 -8 -34 -1q-6 2 -10 6q-4 3 -7 6q-2 3 -5 7l-11 17l-30 48l-20 33.5l-17.5 30t-8.5 13.5q-46 72 -126 175q-121 156 -135 176q-1 0 -2.5 2t-4 6t-5.5 8q2 -18 2 -48q0 -135 0.5 -158t-4.5 -158.5t-6 -157.5zM240 718q0 -17 -12 -29
t-29.5 -12t-29.5 12t-12 29q0 59 31 102q21 28 51 38t72 -5q13 -5 27 -19q7 -8 18 -22l36 -42q7 -6 11 -10q24 46 24 65q0 17 12 29t29.5 12t29.5 -12t12 -29q0 -38 -33 -104q-28 -56 -80 -48q-31 5 -64 39q-11 11 -41 48q-9 11 -14 16l-2 2q-12 4 -21 -7q-15 -21 -15 -53z
" />
    <glyph glyph-name="Ograve" unicode="&#xd2;" horiz-adv-x="767" 
d="M444 665q0 -6 -2 -11q-5 -17 -20 -25t-31 -2q-12 3 -27.5 8.5t-21.5 7t-15.5 3.5t-18 1.5t-19.5 -2.5q-46 -8 -95 -56t-75 -109.5t-25.5 -120t20.5 -114.5q32 -84 108 -129t186 -28q81 12 129.5 99t47.5 207q0 117 -46 196q-38 65 -95 75zM320 730q6 3 13 5q4 0 22.5 4.5
t36 7t31.5 2.5q61 0 108.5 -31.5t78.5 -85.5q58 -98 58 -238q0 -64 -14 -126.5t-42.5 -118.5t-78 -94.5t-113.5 -48.5q-138 -21 -239.5 39t-143.5 170q-26 71 -26 145.5t32 151t93 135.5q67 66 139 80q23 4 45 3zM435 828q10 -14 7.5 -31t-16.5 -27t-31 -7.5t-27 16.5
q-35 48 -59 57q-17 5 -24.5 20.5t-2 31.5t20.5 24t32 2q50 -16 100 -86z" />
    <glyph glyph-name="Oacute" unicode="&#xd3;" horiz-adv-x="767" 
d="M444 665q0 -6 -2 -11q-5 -17 -20 -25t-31 -2q-12 3 -27.5 8.5t-21.5 7t-15.5 3.5t-18 1.5t-19.5 -2.5q-46 -8 -95 -56t-75 -109.5t-25.5 -120t20.5 -114.5q32 -84 108 -129t186 -28q81 12 129.5 99t47.5 207q0 117 -46 196q-38 65 -95 75zM320 730q6 3 13 5q4 0 22.5 4.5
t36 7t31.5 2.5q61 0 108.5 -31.5t78.5 -85.5q58 -98 58 -238q0 -64 -14 -126.5t-42.5 -118.5t-78 -94.5t-113.5 -48.5q-138 -21 -239.5 39t-143.5 170q-26 71 -26 145.5t32 151t93 135.5q67 66 139 80q23 4 45 3zM403 924q16 6 31.5 -1.5t21.5 -23.5t-1.5 -31.5t-24.5 -21.5
q-45 -16 -56 -63q-5 -16 -19.5 -25t-31 -5t-25.5 19t-5 31q11 43 40 75t70 46z" />
    <glyph glyph-name="Ocircumflex" unicode="&#xd4;" horiz-adv-x="767" 
d="M444 665q0 -6 -2 -11q-5 -17 -20 -25t-31 -2q-12 3 -27.5 8.5t-21.5 7t-15.5 3.5t-18 1.5t-19.5 -2.5q-46 -8 -95 -56t-75 -109.5t-25.5 -120t20.5 -114.5q32 -84 108 -129t186 -28q81 12 129.5 99t47.5 207q0 117 -46 196q-38 65 -95 75zM320 730q6 3 13 5q4 0 22.5 4.5
t36 7t31.5 2.5q61 0 108.5 -31.5t78.5 -85.5q58 -98 58 -238q0 -64 -14 -126.5t-42.5 -118.5t-78 -94.5t-113.5 -48.5q-138 -21 -239.5 39t-143.5 170q-26 71 -26 145.5t32 151t93 135.5q67 66 139 80q23 4 45 3zM498 823q11 -14 8.5 -31t-16.5 -27t-31 -7.5t-27 15.5
q-32 43 -58 61q-7 -4 -20 -19q-2 -1 -6.5 -7t-7.5 -9l-9 -9t-11 -10l-11.5 -9t-13.5 -8q-15 -8 -31.5 -2.5t-24 21t-2 31.5t20.5 24q8 4 33 33q36 40 75 47q6 2 12 1q13 1 24 -4q45 -23 96 -91z" />
    <glyph glyph-name="Otilde" unicode="&#xd5;" horiz-adv-x="767" 
d="M444 665q0 -6 -2 -11q-5 -17 -20 -25t-31 -2q-12 3 -27.5 8.5t-21.5 7t-15.5 3.5t-18 1.5t-19.5 -2.5q-46 -8 -95 -56t-75 -109.5t-25.5 -120t20.5 -114.5q32 -84 108 -129t186 -28q81 12 129.5 99t47.5 207q0 117 -46 196q-38 65 -95 75zM320 730q6 3 13 5q4 0 22.5 4.5
t36 7t31.5 2.5q61 0 108.5 -31.5t78.5 -85.5q58 -98 58 -238q0 -64 -14 -126.5t-42.5 -118.5t-78 -94.5t-113.5 -48.5q-138 -21 -239.5 39t-143.5 170q-26 71 -26 145.5t32 151t93 135.5q67 66 139 80q23 4 45 3zM248 773q0 -9 -6.5 -16t-16.5 -7t-16.5 7t-6.5 16
q0 42 13 65q15 26 44 31q32 5 97 -24q63 -27 80 -28q10 -1 14 2q6 6 8 24l1 14q-6 8 -4 17.5t10 15t17.5 3.5t15.5 -10q10 -16 7 -46q-4 -36 -24 -53q-19 -17 -48 -14q-26 2 -95 32q-54 23 -72 20q-7 -1 -10 -7q-8 -13 -8 -42z" />
    <glyph glyph-name="Odieresis" unicode="&#xd6;" horiz-adv-x="767" 
d="M444 665q0 -6 -2 -11q-5 -17 -20 -25t-31 -2q-12 3 -27.5 8.5t-21.5 7t-15.5 3.5t-18 1.5t-19.5 -2.5q-46 -8 -95 -56t-75 -109.5t-25.5 -120t20.5 -114.5q32 -84 108 -129t186 -28q81 12 129.5 99t47.5 207q0 117 -46 196q-38 65 -95 75zM320 730q6 3 13 5q4 0 22.5 4.5
t36 7t31.5 2.5q61 0 108.5 -31.5t78.5 -85.5q58 -98 58 -238q0 -64 -14 -126.5t-42.5 -118.5t-78 -94.5t-113.5 -48.5q-138 -21 -239.5 39t-143.5 170q-26 71 -26 145.5t32 151t93 135.5q67 66 139 80q23 4 45 3zM275 802q-1 0 -1 1q-22 15 -25 41q-4 35 26 56q26 17 53 6
q22 -9 32 -31q4 -11 5 -25t-7 -30t-26 -25q-25 -11 -48 1q-5 2 -9 6zM513 801q-8 -10 -19 -14q-17 -6 -34 2q-18 7 -26.5 22.5t-8 30t7.5 26.5q9 19 30.5 29t46.5 -1q17 -7 25 -22.5t5 -32.5q-4 -22 -22 -37q-2 -1 -5 -3z" />
    <glyph glyph-name="multiply" unicode="&#xd7;" horiz-adv-x="651" 
d="M516 90q11 -13 8.5 -30t-16 -27.5t-30.5 -8.5t-27 16q-59 75 -176 177q-1 1 -2 1l-61 -68q-5 -6 -39 -56q-31 -47 -58 -65q-15 -10 -31.5 -6.5t-26 18t-6.5 31t18 26.5q13 9 35 42l44 64l62 69q-85 73 -129 118q-12 12 -12.5 29t12 29.5t29.5 12.5t29 -13
q45 -44 130 -117q121 118 222 168q16 8 32 2.5t24 -20.5t2.5 -31.5t-20.5 -24.5q-88 -44 -197 -148q121 -107 184 -188z" />
    <glyph glyph-name="Oslash" unicode="&#xd8;" horiz-adv-x="863" 
d="M572 506q-40 -47 -65 -74l-71 -77l-75.5 -82l-67.5 -75l-71 -82q79 -44 186 -28q81 12 129.5 99t47.5 207q0 59 -13 112zM537 593q-37 62 -93 72q0 -6 -2 -11q-5 -17 -20 -25t-31 -2q-12 3 -27.5 8.5t-21.5 7t-15.5 3.5t-18 1.5t-19.5 -2.5q-46 -8 -95 -56t-75 -109.5
t-25.5 -120t20.5 -114.5q16 -43 44 -76l85.5 99l115.5 126.5l87 93.5q12 13 91 105zM696 753q14 10 31 8t27.5 -15.5t8.5 -30.5t-16 -28q-51 -40 -111 -108q32 -83 32 -185q0 -64 -14 -126.5t-42.5 -118.5t-78 -94.5t-113.5 -48.5q-143 -22 -250 45q-38 -51 -70 -99
q-10 -14 -27 -17.5t-31 6t-17.5 26.5t5.5 31q35 51 76 105q-45 48 -69 112q-26 71 -26 145.5t32 151t93 135.5q67 66 139 80q23 4 45 3q6 3 13 5q4 0 22.5 4.5t36 7t31.5 2.5q104 0 171 -92q55 58 102 96z" />
    <glyph glyph-name="Ugrave" unicode="&#xd9;" horiz-adv-x="716" 
d="M77 675q1 17 14 28t30 10t28 -14t10 -30q0 -10 -2 -31q-5 -71 -6.5 -111.5t-1 -102t11 -109t30.5 -85.5q28 -55 74.5 -88t94.5 -37q47 -3 86.5 25t62.5 92q46 129 3 396q-2 16 8 30t26.5 16.5t30.5 -7.5t17 -27q12 -79 18 -141.5t1.5 -147t-26.5 -147.5
q-31 -89 -94 -132.5t-139 -38.5q-71 5 -135 50.5t-102 118.5q-13 25 -22.5 57t-15.5 57t-8.5 66.5t-4 61t0 67.5t2 59.5t4.5 62.5t4 52zM425 757q4 -17 -4.5 -31.5t-25.5 -19t-31.5 4.5t-18.5 26q-6 21 -30 48q-2 2 -15 16l-22.5 25t-17.5 23q-9 14 -5.5 31t17.5 26.5t31 6
t27 -17.5q5 -9 11.5 -16.5t18 -19.5l17.5 -18q38 -43 48 -84z" />
    <glyph glyph-name="Uacute" unicode="&#xda;" horiz-adv-x="716" 
d="M77 675q1 17 14 28t30 10t28 -14t10 -30q0 -10 -2 -31q-5 -71 -6.5 -111.5t-1 -102t11 -109t30.5 -85.5q28 -55 74.5 -88t94.5 -37q47 -3 86.5 25t62.5 92q46 129 3 396q-2 16 8 30t26.5 16.5t30.5 -7.5t17 -27q12 -79 18 -141.5t1.5 -147t-26.5 -147.5
q-31 -89 -94 -132.5t-139 -38.5q-71 5 -135 50.5t-102 118.5q-13 25 -22.5 57t-15.5 57t-8.5 66.5t-4 61t0 67.5t2 59.5t4.5 62.5t4 52zM404 913q16 5 31.5 -2.5t20.5 -24t-2.5 -32t-23.5 -20.5q-23 -7 -45.5 -33t-27.5 -49q-3 -17 -17.5 -26.5t-31 -6t-26 17.5t-6.5 31
q9 46 46.5 88t81.5 57z" />
    <glyph glyph-name="Ucircumflex" unicode="&#xdb;" horiz-adv-x="716" 
d="M77 675q1 17 14 28t30 10t28 -14t10 -30q0 -10 -2 -31q-5 -71 -6.5 -111.5t-1 -102t11 -109t30.5 -85.5q28 -55 74.5 -88t94.5 -37q47 -3 86.5 25t62.5 92q46 129 3 396q-2 16 8 30t26.5 16.5t30.5 -7.5t17 -27q12 -79 18 -141.5t1.5 -147t-26.5 -147.5
q-31 -89 -94 -132.5t-139 -38.5q-71 5 -135 50.5t-102 118.5q-13 25 -22.5 57t-15.5 57t-8.5 66.5t-4 61t0 67.5t2 59.5t4.5 62.5t4 52zM376 900q19 5 36 -7q7 -2 12 -6q37 -27 58 -73t21 -92q0 -18 -12 -30t-29.5 -12t-29.5 12t-12 30q0 25 -10.5 51t-27.5 41
q-7 -4 -14 -9.5t-14.5 -15.5t-12 -17l-15.5 -23.5l-16 -24.5q-10 -15 -27 -18t-31 6.5t-17.5 26t5.5 31.5q2 1 16 24t22 33t24 28t34.5 28.5t39.5 16.5z" />
    <glyph glyph-name="Udieresis" unicode="&#xdc;" horiz-adv-x="716" 
d="M278 765q-8 0 -15 2q-13 4 -25 15t-14 29q-5 32 14.5 52.5t45.5 22.5h3q2 1 5 2q16 5 31.5 -2.5t20.5 -24.5q6 -17 5 -33q0 -8 -2 -16q-7 -26 -26 -39q-20 -14 -43 -8zM502 764q-6 -6 -14 -10q-32 -15 -58 5.5t-26 55.5q0 25 6 42q13 32 45 34q23 0 41 -17q10 -10 17 -24
q8 -13 10 -27q5 -22 -3 -39q-6 -13 -18 -20zM77 675q1 17 14 28t30 10t28 -14t10 -30q0 -10 -2 -31q-5 -71 -6.5 -111.5t-1 -102t11 -109t30.5 -85.5q28 -55 74.5 -88t94.5 -37q47 -3 86.5 25t62.5 92q46 129 3 396q-2 16 8 30t26.5 16.5t30.5 -7.5t17 -27q12 -79 18 -141.5
t1.5 -147t-26.5 -147.5q-31 -89 -94 -132.5t-139 -38.5q-71 5 -135 50.5t-102 118.5q-13 25 -22.5 57t-15.5 57t-8.5 66.5t-4 61t0 67.5t2 59.5t4.5 62.5t4 52z" />
    <glyph glyph-name="Yacute" unicode="&#xdd;" horiz-adv-x="678" 
d="M9 678q-10 14 -7 31t17 27t31 7t27 -17q74 -104 173 -282q1 -1 3.5 -6.5t8 -15.5t9.5 -18q10 10 24 12q1 1 1 3q11 25 12 28q15 31 31.5 60.5t43 67l36 51.5t46 62l39.5 52q10 13 27 15.5t30.5 -7.5t16 -27t-7.5 -31l-34.5 -45.5l-36 -47.5l-31 -43t-32.5 -48t-27 -45
t-27 -50l-9 -23l-18 -40q-6 -12 -13 -21v-309q0 -17 -12 -29t-29 -12t-29 12t-12 29v263q-6 2 -10.5 4.5t-6.5 4.5l-1 2q-3 2 -5 5l-4 6l-8 13l-19 35l-12.5 24t-11 20.5t-4.5 8.5q-97 174 -169 274zM340 906q10 14 27 16.5t31 -7.5t16.5 -27t-7.5 -31q-8 -10 -33.5 -46.5
t-40.5 -55.5q-11 -14 -28 -16t-30.5 8.5t-15.5 27.5t8 30q15 19 40 55t33 46z" />
    <glyph glyph-name="Thorn" unicode="&#xde;" horiz-adv-x="655" 
d="M162 310q4 0 7 -1q49 -20 88 -28t81 -4t86 23q55 24 48 66q-9 50 -75 102q-69 54 -143 63q-58 7 -94 -23q-1 -76 2 -198zM91 698q2 17 16 27t31 7.5t27 -16.5t8 -31q-6 -37 -9 -81q46 16 100 9q97 -11 185 -80q90 -71 105 -153q9 -50 -16.5 -91t-81.5 -65
q-51 -23 -101.5 -29t-94.5 1t-94 25q4 -120 4 -183q0 -17 -12 -29t-29.5 -12t-29.5 12t-12 29q0 56 -5.5 212.5t-4.5 241.5q-9 11 -8.5 25t8.5 25l1 1q3 90 13 155z" />
    <glyph glyph-name="germandbls" unicode="&#xdf;" horiz-adv-x="646" 
d="M295 339q-26 -9 -44 12q-18 8 -23 27q-4 17 5 31.5t25 19.5q108 27 123 84q6 22 -3 46t-30 45q-23 22 -51 31.5t-55 3.5q-69 -14 -108 -117q-27 -71 -32 -161.5t8.5 -176.5t40.5 -168q5 -16 -2.5 -31.5t-24 -20.5t-31.5 2.5t-21 23.5q-29 88 -43.5 180.5t-9 195.5
t36.5 185q28 74 71.5 116.5t98.5 53.5q49 10 96.5 -6.5t83 -50.5t52 -79.5t4.5 -92.5q-12 -45 -51 -80q45 -21 78 -64.5t48 -92.5q26 -92 -11 -164q-44 -86 -153 -94q-30 -2 -50 0q-48 5 -68 35q-9 14 -5.5 31t17.5 27q13 8 29 6t26 -15q4 -1 10 -2q13 -1 35 1q63 5 85 49
q22 43 5 103q-18 63 -63.5 94.5t-98.5 12.5z" />
    <glyph glyph-name="agrave" unicode="&#xe0;" horiz-adv-x="566" 
d="M374 408q-96 68 -159 46q-55 -19 -78 -100q-25 -84 -0.5 -171.5t84.5 -115.5q22 -10 40.5 -6.5t40.5 22.5q44 39 60 134q3 21 5.5 46t3 42.5t1.5 45.5t2 41v16zM382 48q-12 -15 -26 -27q-81 -71 -171 -28q-93 44 -128 167q-31 111 1 217q15 55 48 96.5t82 58.5
q84 29 188 -28q1 2 2 5q1 5 3 8q8 15 24 21q22 8 40 -7q8 -6 12 -16q3 -6 3 -13q1 -7 1 -21q0 -4 -1 -18.5t-1 -19.5v-70v-67q0 -13 1 -39t1 -39q2 -160 5 -204q1 -17 -10 -30t-28 -14t-30 10t-14 28zM349 651q13 -10 15.5 -27t-8 -31t-27.5 -16t-31 8q-12 10 -43 31.5
l-57.5 41.5t-45.5 39q-12 12 -12 29.5t12 29.5t29.5 12t29.5 -12q17 -17 39 -33.5l51 -37z" />
    <glyph glyph-name="aacute" unicode="&#xe1;" horiz-adv-x="566" 
d="M374 408q-96 68 -159 46q-55 -19 -78 -100q-25 -84 -0.5 -171.5t84.5 -115.5q22 -10 40.5 -6.5t40.5 22.5q44 39 60 134q3 21 5.5 46t3 42.5t1.5 45.5t2 41v16zM382 48q-12 -15 -26 -27q-81 -71 -171 -28q-93 44 -128 167q-31 111 1 217q15 55 48 96.5t82 58.5
q84 29 188 -28q1 2 2 5q1 5 3 8q8 15 24 21q22 8 40 -7q8 -6 12 -16q3 -6 3 -13q1 -7 1 -21q0 -4 -1 -18.5t-1 -19.5v-70v-67q0 -13 1 -39t1 -39q2 -160 5 -204q1 -17 -10 -30t-28 -14t-30 10t-14 28zM304 785q15 8 31.5 3t24.5 -20t3 -31.5t-20 -24.5q-20 -11 -33.5 -23
t-33.5 -35t-35 -38q-12 -12 -29.5 -12t-29.5 12t-12 29t12 29q6 6 29.5 32.5t45 45.5t47.5 33z" />
    <glyph glyph-name="acircumflex" unicode="&#xe2;" horiz-adv-x="566" 
d="M374 408q-96 68 -159 46q-55 -19 -78 -100q-25 -84 -0.5 -171.5t84.5 -115.5q22 -10 40.5 -6.5t40.5 22.5q44 39 60 134q3 21 5.5 46t3 42.5t1.5 45.5t2 41v16zM382 48q-12 -15 -26 -27q-81 -71 -171 -28q-93 44 -128 167q-31 111 1 217q15 55 48 96.5t82 58.5
q84 29 188 -28q1 2 2 5q1 5 3 8q8 15 24 21q22 8 40 -7q8 -6 12 -16q3 -6 3 -13q1 -7 1 -21q0 -4 -1 -18.5t-1 -19.5v-70v-67q0 -13 1 -39t1 -39q2 -160 5 -204q1 -17 -10 -30t-28 -14t-30 10t-14 28zM422 630q10 -14 7.5 -31t-16.5 -27.5t-31 -7.5t-27 16l-26 36.5
l-30.5 42t-24.5 29.5q-22 -31 -45 -78q-8 -16 -24.5 -21t-31.5 2.5t-20.5 24t2.5 31.5q41 82 82 129q12 13 29 14t30 -11q3 -2 5 -5q18 -13 37.5 -34.5t31 -37l30 -41.5t22.5 -31z" />
    <glyph glyph-name="atilde" unicode="&#xe3;" horiz-adv-x="566" 
d="M374 408q-96 68 -159 46q-55 -19 -78 -100q-25 -84 -0.5 -171.5t84.5 -115.5q22 -10 40.5 -6.5t40.5 22.5q44 39 60 134q3 21 5.5 46t3 42.5t1.5 45.5t2 41v16zM382 48q-12 -15 -26 -27q-81 -71 -171 -28q-93 44 -128 167q-31 111 1 217q15 55 48 96.5t82 58.5
q84 29 188 -28q1 2 2 5q1 5 3 8q8 15 24 21q22 8 40 -7q8 -6 12 -16q3 -6 3 -13q1 -7 1 -21q0 -4 -1 -18.5t-1 -19.5v-70v-67q0 -13 1 -39t1 -39q2 -160 5 -204q1 -17 -10 -30t-28 -14t-30 10t-14 28zM135 604q5 -17 -3 -32t-24.5 -20t-32 3t-20.5 24q-9 30 -8 48
q1 35 29 59q64 57 137 24q12 -5 26 -14.5t22.5 -16.5l22 -18t16.5 -13q21 -17 32 -19q20 13 45 87q6 17 21 24.5t31.5 2t24 -20.5t2.5 -32q-39 -118 -96 -139q-49 -18 -112 32l-19 16t-18.5 15t-15.5 11t-16 9q-24 11 -48 -10q-1 0 -1 -1q0 -4 5 -19z" />
    <glyph glyph-name="adieresis" unicode="&#xe4;" horiz-adv-x="566" 
d="M374 408q-96 68 -159 46q-55 -19 -78 -100q-25 -84 -0.5 -171.5t84.5 -115.5q22 -10 40.5 -6.5t40.5 22.5q44 39 60 134q3 21 5.5 46t3 42.5t1.5 45.5t2 41v16zM382 48q-12 -15 -26 -27q-81 -71 -171 -28q-93 44 -128 167q-31 111 1 217q15 55 48 96.5t82 58.5
q84 29 188 -28q1 2 2 5q1 5 3 8q8 15 24 21q22 8 40 -7q8 -6 12 -16q3 -6 3 -13q1 -7 1 -21q0 -4 -1 -18.5t-1 -19.5v-70v-67q0 -13 1 -39t1 -39q2 -160 5 -204q1 -17 -10 -30t-28 -14t-30 10t-14 28zM234 695q14 -17 11 -39q-4 -21 -24 -39q-21 -18 -51 -15q-19 2 -32 14
q-18 17 -16 42q1 18 6 27q7 17 25 29q17 10 34 11q27 0 42 -22q3 -4 5 -8zM314 700q8 13 20 20q22 13 46 2q18 -8 29 -27q6 -7 10 -14q14 -24 5 -49q-11 -26 -42 -34q-21 -5 -39 5l-10 2q-23 7 -34 30q-2 5 -4 11v1.5t-1 1.5q-5 15 0.5 29.5t19.5 21.5z" />
    <glyph glyph-name="aring" unicode="&#xe5;" horiz-adv-x="566" 
d="M374 408q-96 68 -159 46q-55 -19 -78 -100q-25 -84 -0.5 -171.5t84.5 -115.5q22 -10 40.5 -6.5t40.5 22.5q44 39 60 134q3 21 5.5 46t3 42.5t1.5 45.5t2 41v16zM382 48q-12 -15 -26 -27q-81 -71 -171 -28q-93 44 -128 167q-31 111 1 217q15 55 48 96.5t82 58.5
q84 29 188 -28q1 2 2 5q1 5 3 8q8 15 24 21q22 8 40 -7q8 -6 12 -16q3 -6 3 -13q1 -7 1 -21q0 -4 -1 -18.5t-1 -19.5v-70v-67q0 -13 1 -39t1 -39q2 -160 5 -204q1 -17 -10 -30t-28 -14t-30 10t-14 28zM256 804q5 2 11 2q53 5 90 -26.5t45 -76.5q9 -49 -17 -86
q-29 -42 -87.5 -48t-96 27t-43.5 81q-6 49 22 85.5t76 41.5zM282 724q-6 -2 -12 -2q-17 0 -24 -9q-7 -10 -5 -26q2 -17 14.5 -27.5t33.5 -8.5q20 2 28 13q6 9 4 24q-3 14 -13.5 24t-25.5 12z" />
    <glyph glyph-name="ae" unicode="&#xe6;" horiz-adv-x="954" 
d="M374 408q-96 68 -159 46q-55 -19 -78 -100q-25 -84 -0.5 -171.5t84.5 -115.5q22 -10 40.5 -6.5t40.5 22.5q44 39 60 134q3 21 5.5 46t3 42.5t1.5 45.5t2 41v16zM770 352q-2 8 -10 19q-24 37 -72 61q-34 18 -65.5 21.5t-62 -11t-52.5 -47.5q-16 -25 -26 -51l169 3
q66 2 103 4q10 0 16 1zM474 261q-3 0 -6 1q1 -50 23.5 -93.5t58.5 -72.5q58 -44 112 -31q61 16 92 107q6 16 21 23.5t31.5 2t24 -20.5t1.5 -32q-22 -66 -60.5 -106.5t-89.5 -53.5q-46 -12 -94 1.5t-89 44.5q-18 15 -35 33q1 -21 2 -40q1 -17 -10 -30t-28 -14t-30 10t-14 28
l-2 30q-12 -15 -26 -27q-81 -71 -171 -28q-93 44 -128 167q-31 111 1 217q15 55 48 96.5t82 58.5q84 29 188 -28q1 2 2 5q1 5 3 8q8 15 24 21q22 8 40 -7q8 -6 12 -16q3 -6 3 -13q1 -7 1 -21q0 -5 -1 -12q37 41 86 56.5t93.5 8.5t86.5 -28q67 -35 103 -89q47 -71 9 -126
q-7 -11 -21 -16q-4 -1 -9 -2t-14 -2q-13 -2 -36 -3q-38 -2 -105 -3q-5 -1 -179 -4z" />
    <glyph glyph-name="ccedilla" unicode="&#xe7;" horiz-adv-x="550" 
d="M188 -87q-12 -4 -22.5 2t-14.5 18q-4 17 7 29q8 18 28 40q6 8 17 18q-51 14 -89 52t-53 100q-21 92 8 185.5t90 148.5q70 64 147 49q84 -17 138 -125q7 -15 2 -31.5t-20.5 -24t-32 -2t-23.5 20.5q-36 72 -80 81q-36 7 -75 -29q-45 -41 -67 -112.5t-6 -141.5
q13 -54 53 -78t89 -17q46 7 70 34q21 24 10 57q-5 16 2.5 31.5t24 21t31.5 -2.5t21 -24q26 -78 -27 -138q-44 -50 -120 -61q-19 -3 -38 -2q-2 -6 -6 -11q-2 -2 -6 -5.5t-8 -7.5t-7 -8q45 2 74 -19q24 -16 32 -41.5t2 -50.5q-7 -25 -26 -44.5t-47 -26.5q-60 -16 -133 32
q-10 7 -12.5 19t4.5 22.5t19 13t23 -4.5q49 -33 84 -24q24 6 30 28q4 18 -10 28q-25 17 -83 1z" />
    <glyph glyph-name="egrave" unicode="&#xe8;" horiz-adv-x="570" 
d="M387 345q-3 9 -10 19q-24 37 -72 62q-34 17 -65.5 20.5t-62.5 -10.5t-52 -47q-17 -25 -26 -52l169 3q65 2 102 4q10 0 17 1zM91 255h-7q2 -50 24.5 -93.5t58.5 -71.5q57 -45 112 -31q61 15 92 106q5 16 20.5 24t31.5 2.5t24 -21t2 -31.5q-22 -66 -61 -107t-89 -53
q-47 -12 -94.5 1t-88.5 45q-40 31 -67.5 76t-40.5 98t-1.5 115t48.5 119q28 43 65 66.5t76 27.5t75.5 -3t70.5 -25q68 -34 104 -89q47 -71 9 -125q-8 -12 -22 -17q-3 -1 -8 -2q-6 -1 -14 -2q-13 -1 -36 -3q-39 -2 -105 -3q-5 0 -179 -3zM328 637q11 -12 10 -29.5t-14 -28.5
t-30 -10t-28 14q-71 79 -106 102q-14 10 -17.5 27t6 31t26.5 17.5t31 -5.5q22 -15 48 -39.5t37 -36.5z" />
    <glyph glyph-name="eacute" unicode="&#xe9;" horiz-adv-x="570" 
d="M387 345q-3 9 -10 19q-24 37 -72 62q-34 17 -65.5 20.5t-62.5 -10.5t-52 -47q-17 -25 -26 -52l169 3q65 2 102 4q10 0 17 1zM91 255h-7q2 -50 24.5 -93.5t58.5 -71.5q57 -45 112 -31q61 15 92 106q5 16 20.5 24t31.5 2.5t24 -21t2 -31.5q-22 -66 -61 -107t-89 -53
q-47 -12 -94.5 1t-88.5 45q-40 31 -67.5 76t-40.5 98t-1.5 115t48.5 119q28 43 65 66.5t76 27.5t75.5 -3t70.5 -25q68 -34 104 -89q47 -71 9 -125q-8 -12 -22 -17q-3 -1 -8 -2q-6 -1 -14 -2q-13 -1 -36 -3q-39 -2 -105 -3q-5 0 -179 -3zM281 747q13 11 30.5 9.5t28.5 -14.5
t9.5 -30t-14.5 -29q-54 -46 -77 -81q-10 -14 -26.5 -17.5t-31 6t-18 26.5t6.5 31q30 45 92 99z" />
    <glyph glyph-name="ecircumflex" unicode="&#xea;" horiz-adv-x="570" 
d="M387 345q-3 9 -10 19q-24 37 -72 62q-34 17 -65.5 20.5t-62.5 -10.5t-52 -47q-17 -25 -26 -52l169 3q65 2 102 4q10 0 17 1zM91 255h-7q2 -50 24.5 -93.5t58.5 -71.5q57 -45 112 -31q61 15 92 106q5 16 20.5 24t31.5 2.5t24 -21t2 -31.5q-22 -66 -61 -107t-89 -53
q-47 -12 -94.5 1t-88.5 45q-40 31 -67.5 76t-40.5 98t-1.5 115t48.5 119q28 43 65 66.5t76 27.5t75.5 -3t70.5 -25q68 -34 104 -89q47 -71 9 -125q-8 -12 -22 -17q-3 -1 -8 -2q-6 -1 -14 -2q-13 -1 -36 -3q-39 -2 -105 -3q-5 0 -179 -3zM436 593q8 -15 4 -31.5t-18.5 -25.5
t-31.5 -4.5t-26 18.5q-40 67 -99 115q-34 -51 -51 -95q-7 -16 -22.5 -23t-31.5 -0.5t-23 22t-1 31.5q29 71 84 145q10 13 26.5 16t30.5 -7q9 -1 16 -6q39 -26 78 -69.5t65 -85.5z" />
    <glyph glyph-name="edieresis" unicode="&#xeb;" horiz-adv-x="570" 
d="M387 345q-3 9 -10 19q-24 37 -72 62q-34 17 -65.5 20.5t-62.5 -10.5t-52 -47q-17 -25 -26 -52l169 3q65 2 102 4q10 0 17 1zM241 606q-7 -7 -17 -12q-26 -13 -54.5 -2t-40.5 42q-3 10 -5 21t-1 24t9 24t22 18q26 13 60 1q27 0 39 -24q13 -13 17 -29q9 -31 -15 -53
q-6 -6 -14 -10zM423 714q26 -16 28 -49q1 -3 1 -5q1 -11 -2 -20q-2 -11 -8 -20q-8 -13 -28 -25q-17 -11 -36 -4q-39 -1 -57 29q-14 24 -8 57q7 35 31 51q20 13 40 11q25 -3 39 -25zM91 255h-7q2 -50 24.5 -93.5t58.5 -71.5q57 -45 112 -31q61 15 92 106q5 16 20.5 24
t31.5 2.5t24 -21t2 -31.5q-22 -66 -61 -107t-89 -53q-47 -12 -94.5 1t-88.5 45q-40 31 -67.5 76t-40.5 98t-1.5 115t48.5 119q28 43 65 66.5t76 27.5t75.5 -3t70.5 -25q68 -34 104 -89q47 -71 9 -125q-8 -12 -22 -17q-3 -1 -8 -2q-6 -1 -14 -2q-13 -1 -36 -3q-39 -2 -105 -3
q-5 0 -179 -3z" />
    <glyph glyph-name="igrave" unicode="&#xec;" horiz-adv-x="291" 
d="M109 508q2 17 15 27.5t30 9t28 -15t9 -30.5q-5 -54 -8 -122.5t-3.5 -104.5t0 -132.5t0.5 -112.5q0 -18 -12 -30t-29.5 -12t-29.5 12t-12 30q0 14 -0.5 111.5t0 134.5t3.5 108t9 127zM178 642q10 -14 6 -31t-18.5 -26t-31 -5.5t-26.5 18.5q-9 15 -22.5 30.5t-23.5 25.5
l-29.5 29l-30.5 29q-12 12 -12 29.5t12 29.5t29.5 12t29.5 -12l27.5 -27l32.5 -32t29 -31.5t28 -38.5z" />
    <glyph glyph-name="iacute" unicode="&#xed;" horiz-adv-x="323" 
d="M107 504q1 17 14.5 28t30.5 9.5t28 -14.5t10 -31q-5 -50 -7 -121.5t-2 -119t0.5 -139.5t0.5 -116q0 -17 -12.5 -29t-29.5 -12t-29.5 12t-12.5 29v116.5v143t2.5 120t6.5 124.5zM144 753q7 16 23 22.5t31.5 -0.5t22 -23t-0.5 -32q-1 -1 -9.5 -20.5l-11.5 -26t-12.5 -24.5
t-17 -28t-19.5 -22.5t-25 -21.5q-15 -9 -31.5 -6t-26 17.5t-6.5 31.5t18 26q4 3 8.5 7t8.5 9l7 9t7.5 11.5t6.5 11.5l6.5 13.5l6.5 14l7 16t7 15.5z" />
    <glyph glyph-name="icircumflex" unicode="&#xee;" horiz-adv-x="414" 
d="M113 503q3 17 17 26.5t31 6.5t26.5 -17.5t6.5 -31.5q-8 -44 -12 -109t-4 -112.5t1 -130.5t1 -112q0 -17 -12 -29t-29.5 -12t-29.5 12t-12 29q0 25 -1 109t-1 134t4.5 119.5t13.5 117.5zM304 635q11 -13 10.5 -30t-13 -28.5t-30 -11t-28.5 13.5q-26 28 -95 96
q-15 -18 -51 -90q-8 -16 -24 -21t-31.5 2.5t-21 24t2.5 31.5l11 22q10 21 13.5 27.5t15.5 25.5t21 29t23 22.5t29 20.5q16 7 32 2t24 -21q1 -2 2 -3q89 -89 110 -112z" />
    <glyph glyph-name="idieresis" unicode="&#xef;" horiz-adv-x="397" 
d="M45 718l12 2q17 2 31 -8q10 -7 17 -19q16 -16 17 -40.5t-9 -37.5q-18 -32 -54 -27q-23 3 -39 25l-6 6q-10 11 -16 23q-11 23 -5 43q7 20 22.5 27t29.5 6zM185 716q4 3 7 5q31 14 56 3t40 -37q21 -39 -1 -69q-14 -19 -38 -23q-16 -11 -34 -9q-33 2 -48 38q-6 15 -7 30
q-3 11 -3 23q0 13 8 24t20 15zM101 524q2 17 16 27.5t31 8t27 -16.5t8 -31q-4 -27 -5 -55t1.5 -65.5t4 -56.5t6.5 -67q6 -55 8.5 -89.5t1.5 -85t-9 -91.5q-4 -17 -18 -26.5t-31 -6t-26.5 17.5t-6.5 31q7 35 8 78t-1 76.5t-8 86.5q-1 5 -2 14l-8 85t-3 79t6 87z" />
    <glyph glyph-name="eth" unicode="&#xf0;" horiz-adv-x="654" 
d="M430 406q-13 6 -19 19q-27 55 -90 47q-70 -9 -134 -76q-66 -70 -71 -150q-5 -90 79 -161q68 -57 136 -38q107 29 133 120q24 86 -22 210zM354 816q16 7 32 1t23.5 -21.5t1.5 -31.5t-22 -23q-29 -14 -67 -40q63 -58 115 -136t83 -159q55 -149 24 -262q-38 -136 -192 -177
q-56 -16 -111 0.5t-99 54.5q-117 97 -109 229q6 111 94 203q39 40 87 67t97 33q15 2 31 2q-42 54 -88 94q-48 -41 -69 -73q-10 -14 -27 -17.5t-31 6t-17.5 26.5t5.5 31q24 35 70 77q-24 13 -47 20q-17 5 -25 20.5t-3 32t20.5 24.5t31.5 3q45 -14 92 -45q56 40 100 61z" />
    <glyph glyph-name="ntilde" unicode="&#xf1;" horiz-adv-x="548" 
d="M46 517q-1 17 11 29.5t29 13t29.5 -11.5t12.5 -29q2 -60 8 -139q68 109 162 129q34 8 42 8q38 4 63 -16q19 -14 29 -47q7 -22 11 -56q6 -53 5 -139q0 -56 -3.5 -140t-3.5 -97q0 -17 -12 -29t-29 -12t-29 12t-12 29q0 13 3.5 97t3.5 140q0 82 -5 130q-3 26 -8 41
q-1 3 -2 5h-3q-3 0 -32 -6q-40 -9 -77 -49t-61 -100q-20 -48 -26 -96q3 -48 7 -73q0 -4 3 -15q1 -5 3 -12.5t2 -9.5q4 -14 4 -20q1 -6 0 -11q-1 -10 -6 -19q-7 -11 -20 -16t-26 -1q-12 3 -20 12l-4 6t-4 7q-32 63 -22 154q-2 34 -3 46q-18 219 -20 285zM185 599
q1 -17 -10 -30.5t-28 -15t-30 9.5t-15 28q-6 69 4 105q6 23 21.5 39.5t41.5 17.5q28 1 65 -22q15 -10 53 -39q31 -24 47 -33q10 -6 17 -8q1 1 1 3q10 23 10 78q0 17 12 29t29.5 12t29.5 -12t12 -29q0 -72 -16 -110q-20 -50 -67 -54q-31 -3 -70 19q-20 12 -56 39l-46 35
q-3 2 -6 3q-3 -23 1 -65z" />
    <glyph glyph-name="ograve" unicode="&#xf2;" horiz-adv-x="562" 
d="M316 442l-39 9q-94 23 -144 -10q-31 -21 -51 -65.5t-23.5 -99.5t10.5 -102t41 -71q70 -65 138 -49q62 14 101 85q23 43 29.5 93t-9 106.5t-53.5 103.5zM432 464q14 -11 15.5 -28t-9.5 -30q-2 -2 -3 -4q31 -81 26.5 -159t-40.5 -143q-26 -48 -66 -81.5t-89 -44.5
q-109 -26 -212 67q-44 41 -63.5 106t-14.5 135t33 131.5t78 95.5q76 51 191 26v1q12 12 29 13t29.5 -10.5l24.5 -23.5q8 -2 13 -5q8 -4 15.5 -10l22 -18.5zM325 640q8 -15 2.5 -31.5t-20.5 -24t-31.5 -2t-24.5 20.5q-10 21 -44 53q-47 45 -63 69q-10 15 -6.5 31.5t18 26
t31 6.5t26.5 -18q11 -16 51 -55q45 -42 61 -76z" />
    <glyph glyph-name="oacute" unicode="&#xf3;" horiz-adv-x="562" 
d="M316 442l-39 9q-94 23 -144 -10q-31 -21 -51 -65.5t-23.5 -99.5t10.5 -102t41 -71q70 -65 138 -49q62 14 101 85q23 43 29.5 93t-9 106.5t-53.5 103.5zM432 464q14 -11 15.5 -28t-9.5 -30q-2 -2 -3 -4q31 -81 26.5 -159t-40.5 -143q-26 -48 -66 -81.5t-89 -44.5
q-109 -26 -212 67q-44 41 -63.5 106t-14.5 135t33 131.5t78 95.5q76 51 191 26v1q12 12 29 13t29.5 -10.5l24.5 -23.5q8 -2 13 -5q8 -4 15.5 -10l22 -18.5zM260 761q8 15 24.5 20t31.5 -3t20 -24.5t-3 -31.5l-25.5 -46.5t-33.5 -45t-48 -41.5q-14 -8 -31 -4t-25.5 18.5
t-4.5 31.5t19 26q34 20 76 100z" />
    <glyph glyph-name="ocircumflex" unicode="&#xf4;" horiz-adv-x="562" 
d="M316 442l-39 9q-94 23 -144 -10q-31 -21 -51 -65.5t-23.5 -99.5t10.5 -102t41 -71q70 -65 138 -49q62 14 101 85q23 43 29.5 93t-9 106.5t-53.5 103.5zM201 774q2 15 15 25q13 11 30 9t28 -15q27 -34 61 -86q7 -10 25.5 -39l29.5 -45q9 -14 5.5 -31t-17.5 -26.5t-31 -6
t-27 17.5l-29 45.5t-25 39.5l-20 30l-23 -36l-17.5 -29.5l-15.5 -26.5q-3 -4 -5 -8q-12 -19 -35 -19q-12 0 -23 7q-19 12 -19 35q0 7 3 13v4q4 13 14 22q3 4 12 19.5l15 25.5q29 47 49 75zM432 464q14 -11 15.5 -28t-9.5 -30q-2 -2 -3 -4q31 -81 26.5 -159t-40.5 -143
q-26 -48 -66 -81.5t-89 -44.5q-109 -26 -212 67q-44 41 -63.5 106t-14.5 135t33 131.5t78 95.5q76 51 191 26v1q12 12 29 13t29.5 -10.5l24.5 -23.5q8 -2 13 -5q8 -4 15.5 -10l22 -18.5z" />
    <glyph glyph-name="otilde" unicode="&#xf5;" horiz-adv-x="565" 
d="M316 442l-39 9q-94 23 -144 -10q-31 -21 -51 -65.5t-23.5 -99.5t10.5 -102t41 -71q70 -65 138 -49q62 14 101 85q23 43 29.5 93t-9 106.5t-53.5 103.5zM432 464q14 -11 15.5 -28t-9.5 -30q-2 -2 -3 -4q31 -81 26.5 -159t-40.5 -143q-26 -48 -66 -81.5t-89 -44.5
q-109 -26 -212 67q-44 41 -63.5 106t-14.5 135t33 131.5t78 95.5q76 51 191 26v1q12 12 29 13t29.5 -10.5l24.5 -23.5q8 -2 13 -5q8 -4 15.5 -10l22 -18.5zM156 591q-1 -18 -14 -29t-30 -10t-28.5 14t-9.5 30q8 127 90 139q46 6 128 -40q72 -40 87 -43q2 8 3 22q1 18 -4 24
q-10 14 -7.5 31t16.5 27.5t31 8t27 -16.5q22 -30 20 -79q-3 -52 -27 -77q-28 -30 -72 -22q-11 1 -22.5 5t-26 11.5t-22 11t-24.5 13.5t-20 11q-58 33 -76 30q-3 0 -7 -7q-9 -15 -12 -54z" />
    <glyph glyph-name="odieresis" unicode="&#xf6;" horiz-adv-x="562" 
d="M316 442l-39 9q-94 23 -144 -10q-31 -21 -51 -65.5t-23.5 -99.5t10.5 -102t41 -71q70 -65 138 -49q62 14 101 85q23 43 29.5 93t-9 106.5t-53.5 103.5zM128 614q-4 4 -8 10q-8 13 -11 34q-1 11 1 20q2 20 16 32q19 16 36 20q18 4 33 -4q6 -3 11 -7q19 -7 29 -26
q14 -29 -7 -61q-16 -23 -40 -31q-6 -2 -11 -3q-8 -3 -17 -2q-20 1 -32 18zM312 638q-4 7 -6 14q-11 30 12 54q14 14 39 21q27 7 46 1q33 -11 36 -45q1 -15 -6 -32q7 -27 -15 -45q-12 -10 -30 -10q-4 0 -8 1q-17 -6 -32 -1q-30 8 -36 42zM432 464q14 -11 15.5 -28t-9.5 -30
q-2 -2 -3 -4q31 -81 26.5 -159t-40.5 -143q-26 -48 -66 -81.5t-89 -44.5q-109 -26 -212 67q-44 41 -63.5 106t-14.5 135t33 131.5t78 95.5q76 51 191 26v1q12 12 29 13t29.5 -10.5l24.5 -23.5q8 -2 13 -5q8 -4 15.5 -10l22 -18.5z" />
    <glyph glyph-name="divide" unicode="&#xf7;" horiz-adv-x="693" 
d="M318 384q-18 -2 -36 5q-30 12 -44 35q-12 21 -7 42q5 24 29 37q27 17 62 5t45 -47q5 -20 2 -36q-5 -29 -32 -38q-9 -4 -19 -3zM368 77q10 -14 6.5 -29t-8 -22.5t-10.5 -12.5q-17 -17 -42 -20q-35 -4 -56 23q-15 18 -16.5 38.5t6 35.5t20.5 26q20 18 45 17q18 0 32 -10.5
t20 -28.5q2 -9 3 -17zM553 283q17 -1 29 -13.5t11 -29.5t-13.5 -28.5t-29.5 -11.5q-33 1 -113 5.5t-123.5 5.5t-108.5 0t-119 -10t-103 -25q-16 -6 -31.5 2t-21 24t2.5 31.5t24 20.5q54 19 114 29t129.5 11t116 0t127 -5.5t109.5 -5.5z" />
    <glyph glyph-name="oslash" unicode="&#xf8;" horiz-adv-x="688" 
d="M445 343l-108 -126l-101 -118q9 -7 19 -12q79 -41 173 20q48 31 52.5 98.5t-35.5 137.5zM394 411q-21 20 -43 30q-7 4 -15 6q1 -5 0 -9q-3 -17 -17 -27t-31 -7q-99 18 -133 -41q-15 -26 -16 -64.5t13 -81.5q10 -31 27 -57l94 111zM518 540q12 12 29.5 11.5t29 -13
t11.5 -29.5t-13 -29q-34 -33 -71 -73l13 -21q23 -42 35 -88.5t11.5 -95t-23.5 -92.5t-68 -73q-134 -86 -255 -24q-19 10 -37 23q-44 -49 -84 -89q-12 -12 -29.5 -12t-29.5 12t-12 29.5t12 29.5q41 41 85 90q-31 42 -49 94q-19 51 -17.5 110.5t27.5 104.5q38 64 113 81
q5 8 12 14q84 62 179 16q33 -16 63 -44z" />
    <glyph glyph-name="ugrave" unicode="&#xf9;" horiz-adv-x="547" 
d="M41 478q1 17 14.5 28t30.5 9.5t28 -15t9 -30.5q-1 -11 -7 -68.5t-7 -80t0.5 -61t9.5 -66.5q17 -60 72 -58q26 1 52.5 17t42.5 42q10 18 18.5 44.5t11.5 42.5t10 58.5t8 51.5q8 42 12 87q2 17 3 22q2 13 10 23q17 18 40 13q14 -3 24 -13q13 -15 19 -48q3 -22 5 -56
q2 -54 -1 -144q-1 -46 -4 -98l-5.5 -94t-3.5 -51q-1 -17 -13.5 -28.5t-29.5 -10.5t-28.5 13.5t-10.5 29.5q0 9 2.5 49.5t4.5 68.5l-2 -2q-26 -44 -70 -70.5t-92 -28.5q-53 -2 -95.5 28t-59.5 90q-9 34 -11.5 81t-1 73t8 87t6.5 65zM325 630q10 -13 8 -30.5t-16 -27.5t-31 -8
t-27 16q-44 57 -111 100q-15 9 -18.5 26t5.5 31.5t26 18t31 -5.5q80 -50 133 -120z" />
    <glyph glyph-name="uacute" unicode="&#xfa;" horiz-adv-x="547" 
d="M41 478q1 17 14.5 28t30.5 9.5t28 -15t9 -30.5q-1 -11 -7 -68.5t-7 -80t0.5 -61t9.5 -66.5q17 -60 72 -58q26 1 52.5 17t42.5 42q10 18 18.5 44.5t11.5 42.5t10 58.5t8 51.5q8 42 12 87q2 17 3 22q2 13 10 23q17 18 40 13q14 -3 24 -13q13 -15 19 -48q3 -22 5 -56
q2 -54 -1 -144q-1 -46 -4 -98l-5.5 -94t-3.5 -51q-1 -17 -13.5 -28.5t-29.5 -10.5t-28.5 13.5t-10.5 29.5q0 9 2.5 49.5t4.5 68.5l-2 -2q-26 -44 -70 -70.5t-92 -28.5q-53 -2 -95.5 28t-59.5 90q-9 34 -11.5 81t-1 73t8 87t6.5 65zM306 758q14 10 31 8t27.5 -15.5t8.5 -30.5
t-16 -28q-19 -14 -37.5 -33l-42 -45t-39.5 -42q-12 -12 -29.5 -12t-29.5 12t-12 29.5t12 29.5q11 11 36 38l47.5 50t43.5 39z" />
    <glyph glyph-name="ucircumflex" unicode="&#xfb;" horiz-adv-x="547" 
d="M254 653q-3 -6 -7 -13q-33 -57 -42 -71q-10 -15 -27 -18t-31 6.5t-17.5 26t5.5 31.5q8 11 40 66q26 46 48 72q9 11 22 14l4 2q16 8 32 1.5t23 -21.5q14 -30 35 -86.5t26 -68.5q7 -16 0 -32t-23 -22.5t-31.5 0.5t-22.5 23l-19 51t-15 39zM41 478q1 17 14.5 28t30.5 9.5
t28 -15t9 -30.5q-1 -11 -7 -68.5t-7 -80t0.5 -61t9.5 -66.5q17 -60 72 -58q26 1 52.5 17t42.5 42q10 18 18.5 44.5t11.5 42.5t10 58.5t8 51.5q8 42 12 87q2 17 3 22q2 13 10 23q17 18 40 13q14 -3 24 -13q13 -15 19 -48q3 -22 5 -56q2 -54 -1 -144q-1 -46 -4 -98l-5.5 -94
t-3.5 -51q-1 -17 -13.5 -28.5t-29.5 -10.5t-28.5 13.5t-10.5 29.5q0 9 2.5 49.5t4.5 68.5l-2 -2q-26 -44 -70 -70.5t-92 -28.5q-53 -2 -95.5 28t-59.5 90q-9 34 -11.5 81t-1 73t8 87t6.5 65z" />
    <glyph glyph-name="udieresis" unicode="&#xfc;" horiz-adv-x="547" 
d="M179 584q-6 0 -12 2q-16 4 -31 16.5t-18 33.5q-6 42 42 71q5 3 9 5q6 3 13 4q36 8 59.5 -19.5t15.5 -66.5q-6 -33 -31 -45q-23 -11 -47 -1zM425 690q12 -14 15 -32q3 -23 -9.5 -43.5t-35.5 -29.5q-34 -14 -63 7q-21 16 -28 43q-6 26 3 49q16 36 55 36q46 0 63 -30z
M41 478q1 17 14.5 28t30.5 9.5t28 -15t9 -30.5q-1 -11 -7 -68.5t-7 -80t0.5 -61t9.5 -66.5q17 -60 72 -58q26 1 52.5 17t42.5 42q10 18 18.5 44.5t11.5 42.5t10 58.5t8 51.5q8 42 12 87q2 17 3 22q2 13 10 23q17 18 40 13q14 -3 24 -13q13 -15 19 -48q3 -22 5 -56
q2 -54 -1 -144q-1 -46 -4 -98l-5.5 -94t-3.5 -51q-1 -17 -13.5 -28.5t-29.5 -10.5t-28.5 13.5t-10.5 29.5q0 9 2.5 49.5t4.5 68.5l-2 -2q-26 -44 -70 -70.5t-92 -28.5q-53 -2 -95.5 28t-59.5 90q-9 34 -11.5 81t-1 73t8 87t6.5 65z" />
    <glyph glyph-name="yacute" unicode="&#xfd;" horiz-adv-x="548" 
d="M368 510q5 16 20.5 24t31.5 2.5t24 -21t2 -31.5q-33 -96 -97 -244l-24.5 -57l-26.5 -62q8 -14 4 -30.5t-18 -25.5q-6 -4 -12 -5l-24 -57q-17 -45 -46 -131q-30 -93 -46 -135q-7 -16 -22.5 -23t-31.5 -0.5t-23 22t-1 31.5q16 40 46 131q29 88 48 135q14 37 32 80l-41.5 59
l-46.5 68t-40 64.5t-39 75t-27 72.5q-4 16 4 31t24.5 19.5t31.5 -3.5t20 -25q5 -18 12.5 -37l13.5 -33t18.5 -35.5t18 -32t22 -35l21 -31l24.5 -35t23 -32.5l31 70q62 144 94 237zM254 729q4 17 18.5 26t31.5 5.5t26 -18t6 -31.5q-3 -13 -7 -24.5t-9.5 -23l-9 -19
t-11.5 -19.5l-11 -16.5l-12.5 -18l-11.5 -16.5q-10 -14 -27 -16.5t-31 7.5t-17 26.5t7 30.5q3 4 11 15.5t10.5 14.5t8.5 12t8 13l6 11.5t6 13l4.5 12.5t3.5 15z" />
    <glyph glyph-name="thorn" unicode="&#xfe;" horiz-adv-x="590" 
d="M47 701q1 17 13.5 28.5t30 10.5t29 -14t10.5 -30q-5 -94 -2 -206q53 36 120 40q52 4 100 -12t87 -58.5t51 -105.5q15 -79 -12 -169t-81 -150q-63 -70 -138 -69q-53 1 -100 39q3 -77 3 -142q0 -17 -12 -29t-29.5 -12t-29.5 12t-12 29q0 109 -19 414q-17 265 -9 424z
M138 350q1 -10 -3 -18q2 -23 3 -49q2 -20 4.5 -58.5t3.5 -57.5q19 -15 15 -40v-1q3 -5 11 -17q42 -60 84 -60q37 -1 76 42q41 46 62.5 117t9.5 131q-11 57 -53 84.5t-97 24.5q-54 -4 -86.5 -32t-29.5 -66z" />
    <glyph glyph-name="ydieresis" unicode="&#xff;" horiz-adv-x="548" 
d="M189 599q-15 -5 -31 0q-25 8 -39 32q-20 34 2 65q16 21 41 24h3q26 6 42 -14q22 -16 28 -41q10 -39 -21 -58q-11 -8 -25 -8zM304 697q15 17 37 21q18 3 36 -4.5t28 -25.5q11 -9 14 -23t-4 -27q-4 -8 -10 -15q-8 -14 -24 -21q-9 -5 -18 -7q-27 -8 -49 7q-21 15 -25 44
q-6 21 5 40q4 6 10 11zM368 510q5 16 20.5 24t31.5 2.5t24 -21t2 -31.5q-33 -96 -97 -244l-24.5 -57l-26.5 -62q8 -14 4 -30.5t-18 -25.5q-6 -4 -12 -5l-24 -57q-17 -45 -46 -131q-30 -93 -46 -135q-7 -16 -22.5 -23t-31.5 -0.5t-23 22t-1 31.5q16 40 46 131q29 88 48 135
q14 37 32 80l-41.5 59l-46.5 68t-40 64.5t-39 75t-27 72.5q-4 16 4 31t24.5 19.5t31.5 -3.5t20 -25q5 -18 12.5 -37l13.5 -33t18.5 -35.5t18 -32t22 -35l21 -31l24.5 -35t23 -32.5l31 70q62 144 94 237z" />
    <glyph glyph-name="quoteleft" unicode="&#x2018;" horiz-adv-x="283" 
d="M113 707q12 11 29.5 11t29 -12t11.5 -29.5t-12 -29.5q-38 -37 -46 -60q-6 -18 -5 -82q1 -17 -11 -29.5t-29 -13t-29.5 11.5t-12.5 29q-2 78 9 110q13 42 66 94z" />
    <glyph glyph-name="quoteright" unicode="&#x2019;" horiz-adv-x="273" 
d="M69 664q-7 16 0 31.5t23 22t31.5 -0.5t21.5 -23q38 -96 25 -155q-11 -56 -80 -134q-11 -13 -28 -14t-30 10t-14 28t10 30q54 62 61 96q8 36 -20 109z" />
    <glyph glyph-name="quotedblleft" unicode="&#x201c;" horiz-adv-x="370" 
d="M62 718q11 13 28 14t30 -10t14 -28t-10 -30q-5 -6 -13 -14l-4 -4q-4 -3 -6 -6q-8 -7 -9 -10q-10 -23 -11 -57t2.5 -61t11.5 -69q3 -16 -7 -30.5t-26.5 -17.5t-31 7t-17.5 27q-6 34 -8.5 53t-5.5 55t1.5 67.5t15.5 57.5q8 19 26 37q1 0 12 11zM192 679q7 15 23 21
t31.5 -1.5t21.5 -23.5t-2 -32q-19 -41 -21.5 -76.5t8.5 -84.5q3 -17 -6.5 -31t-26.5 -17.5t-31 6t-18 26.5q-13 56 -9.5 106.5t30.5 106.5z" />
    <glyph glyph-name="quotedblright" unicode="&#x201d;" horiz-adv-x="364" 
d="M34 689q-1 17 10.5 29.5t28.5 13.5t29.5 -10.5t13.5 -28.5q1 -5 1 -16q2 -42 3 -80t-6.5 -82t-24.5 -84q-7 -16 -22.5 -22.5t-31.5 0.5t-22.5 22.5t0.5 31.5q20 47 23 106t-2 120zM182 656q0 17 12.5 29t29.5 11.5t29 -13t11 -29.5q0 -8 -0.5 -32.5t-1 -30t-2 -24.5
t-3 -26l-5 -23t-8.5 -27.5l-12 -27.5t-17 -33q-8 -15 -24 -20t-31 3t-20 24t3 31l12.5 27l9.5 21t7 21.5t4.5 18t2.5 21t1 21t0.5 27.5t1.5 31z" />
    <glyph glyph-name="Euro" unicode="&#x20ac;" horiz-adv-x="783" 
d="M508 330q16 -5 24.5 -20t4 -31.5t-19.5 -25t-31 -3.5q-74 20 -199 20q-47 -1 -87 -5q11 -85 54.5 -135.5t100.5 -61.5q58 -11 117.5 22t100.5 112l6 12t5.5 10.5t4.5 8.5t4 9t3 7.5t2.5 7.5t1 7t0.5 8q0 17 12 29t29.5 12t29.5 -12t12 -29q0 -11 -2 -22.5t-4.5 -20
t-7.5 -20t-7.5 -16.5l-8 -16l-6.5 -13q-53 -101 -136.5 -147.5t-171.5 -30.5q-84 17 -144 85.5t-76 174.5q-7 -4 -13 -7q-14 -10 -31 -6.5t-26.5 18t-6 31t17.5 26.5q22 14 55 24q1 31 5 62l-29 -8q-16 -6 -31.5 2t-20.5 24t2.5 31.5t23.5 20.5q34 12 75 19q26 85 70 147
q64 88 150 109q98 23 205 -48q39 -26 68.5 -66t35.5 -86q3 -17 -7.5 -30.5t-27.5 -16t-30.5 7.5t-16.5 27q-3 25 -22 51t-46 44q-77 51 -140 36q-56 -14 -101 -77q-27 -37 -47 -88q64 3 98.5 3t95 -1.5t85.5 -1.5q17 0 29.5 -12t12.5 -29.5t-12.5 -29.5t-29.5 -12
q-30 0 -95 1.5t-115 1.5t-93 -5q-6 -30 -8 -60q40 4 88 5q136 0 221 -23z" />
    <glyph glyph-name="uni3000" unicode="&#x3000;" horiz-adv-x="1000" 
 />
  </font>
</defs>
</svg>
